<?xml version="1.0" standalone="no"?> 
<!DOCTYPE svg PUBLIC "-//W3C//DTD SVG 1.1//EN" "http://www.w3.org/Graphics/SVG/1.1/DTD/svg11.dtd" >
<svg xmlns="http://www.w3.org/2000/svg">
<defs>
  <font id="Material Design Icons Light" horiz-adv-x="24">
    <font-face font-family="Material Design Icons Light"
      units-per-em="512" ascent="448"
      descent="64" />
    <missing-glyph horiz-adv-x="0" />
    <glyph glyph-name="account"
      unicode="&#xF004;"
      horiz-adv-x="512" d=" M245.3333333333333 149.3333333333334C333.6533333333333 149.3333333333334 405.3333333333333 115.84 405.3333333333333 74.6666666666667V21.3333333333334H85.3333333333333V74.6666666666667C85.3333333333333 115.84 157.0133333333333 149.3333333333334 245.3333333333333 149.3333333333334M384 74.6666666666667C384 104.1066666666667 321.92 128 245.3333333333333 128S106.6666666666667 104.1066666666667 106.6666666666667 74.6666666666667V42.6666666666667H384V74.6666666666667M245.3333333333333 341.3333333333334C286.5066666666667 341.3333333333334 320 307.8400000000001 320 266.6666666666667S286.5066666666667 192 245.3333333333333 192S170.6666666666667 225.4933333333334 170.6666666666667 266.6666666666667S204.16 341.3333333333334 245.3333333333333 341.3333333333334M245.3333333333333 320C215.8933333333333 320 192 296.1066666666667 192 266.6666666666667S215.8933333333334 213.3333333333334 245.3333333333333 213.3333333333334S298.6666666666667 237.2266666666667 298.6666666666667 266.6666666666667S274.7733333333333 320 245.3333333333333 320z" />
    <glyph glyph-name="alarm"
      unicode="&#xF020;"
      horiz-adv-x="512" d=" M245.3333333333333 320C333.6533333333333 320 405.3333333333333 248.32 405.3333333333333 160C405.3333333333333 71.68 333.6533333333333 0 245.3333333333333 0C157.0133333333333 0 85.3333333333333 71.68 85.3333333333333 160C85.3333333333333 248.32 157.0133333333333 320 245.3333333333333 320M245.3333333333333 298.6666666666667C168.7466666666667 298.6666666666667 106.6666666666667 236.5866666666667 106.6666666666667 160S168.7466666666667 21.3333333333334 245.3333333333333 21.3333333333334S384 83.4133333333334 384 160S321.92 298.6666666666667 245.3333333333333 298.6666666666667M234.6666666666667 256H256V162.9866666666667L321.0666666666667 132.6933333333334L312.1066666666667 113.28L234.6666666666667 149.3333333333334V256M325.3333333333333 336L338.9866666666667 352L420.6933333333333 283.7333333333334L407.04 267.52L325.3333333333333 336M165.3333333333333 336L83.6266666666667 267.52L69.9733333333333 283.7333333333334L151.68 352L165.3333333333333 336z" />
    <glyph glyph-name="alarm-plus"
      unicode="&#xF024;"
      horiz-adv-x="512" d=" M245.3333333333333 320C333.6533333333333 320 405.3333333333333 248.32 405.3333333333333 160C405.3333333333333 71.68 333.6533333333333 0 245.3333333333333 0C157.0133333333333 0 85.3333333333333 71.68 85.3333333333333 160C85.3333333333333 248.32 157.0133333333333 320 245.3333333333333 320M245.3333333333333 298.6666666666667C168.7466666666667 298.6666666666667 106.6666666666667 236.5866666666667 106.6666666666667 160S168.7466666666667 21.3333333333334 245.3333333333333 21.3333333333334S384 83.4133333333334 384 160S321.92 298.6666666666667 245.3333333333333 298.6666666666667M325.3333333333333 336L338.9866666666667 352L420.6933333333333 283.7333333333334L407.04 267.52L325.3333333333333 336M165.3333333333333 336L83.6266666666667 267.52L69.9733333333333 283.7333333333334L151.68 352L165.3333333333333 336M234.6666666666667 213.3333333333334H256V170.6666666666667H298.6666666666667V149.3333333333334H256V106.6666666666667H234.6666666666667V149.3333333333334H192V170.6666666666667H234.6666666666667V213.3333333333334z" />
    <glyph glyph-name="alert"
      unicode="&#xF026;"
      horiz-adv-x="512" d=" M21.3333333333333 0L245.3333333333333 388.0533333333334L469.3333333333333 0H21.3333333333333M432.4266666666666 21.3333333333334L245.3333333333333 345.3866666666667L58.24 21.3333333333334H432.4266666666666M234.6666666666667 149.3333333333334V234.6666666666667H256V149.3333333333334H234.6666666666667M234.6666666666667 106.6666666666667H256V64H234.6666666666667V106.6666666666667z" />
    <glyph glyph-name="alert-circle"
      unicode="&#xF028;"
      horiz-adv-x="512" d=" M245.3333333333333 384C357.3333333333333 384 448 293.3333333333334 448 181.3333333333334S357.3333333333333 -21.3333333333333 245.3333333333333 -21.3333333333333S42.6666666666667 69.3333333333334 42.6666666666667 181.3333333333334S133.3333333333333 384 245.3333333333333 384M245.3333333333333 362.6666666666667C145.28 362.6666666666667 64 281.3866666666667 64 181.3333333333334C64 81.28 145.28 0 245.3333333333333 0C345.3866666666667 0 426.6666666666667 81.28 426.6666666666667 181.3333333333334C426.6666666666667 281.3866666666667 345.3866666666667 362.6666666666667 245.3333333333333 362.6666666666667M234.6666666666667 85.3333333333334V128H256V85.3333333333334H234.6666666666667M234.6666666666667 170.6666666666667V277.3333333333334H256V170.6666666666667H234.6666666666667z" />
    <glyph glyph-name="alert-octagon"
      unicode="&#xF029;"
      horiz-adv-x="512" d=" M64 106.6666666666667V256L170.6666666666667 362.6666666666667H320L426.6666666666667 256V106.0266666666666L320.64 0H170.6666666666667L64 106.6666666666667M178.9866666666667 341.3333333333334L85.3333333333333 247.68V115.2L179.2 21.3333333333334H311.68L405.3333333333333 114.9866666666667V247.68L311.68 341.3333333333334H178.9866666666667M234.6666666666667 277.3333333333334H256V170.6666666666667H234.6666666666667V277.3333333333334M234.6666666666667 128H256V85.3333333333334H234.6666666666667V128z" />
    <glyph glyph-name="arrange-bring-forward"
      unicode="&#xF03D;"
      horiz-adv-x="512" d=" M170.6666666666667 256H256V234.6666666666667H207.1466666666667L350.2933333333334 91.3066666666667L335.36 76.3733333333334L192 219.52V170.6666666666667H170.6666666666667V256M64 362.6666666666667H320V170.6666666666667L298.6666666666667 192V341.3333333333334H85.3333333333333V128H234.6666666666667L256 106.6666666666667H64V362.6666666666667M426.6666666666667 256V0H170.6666666666667V64H192V21.3333333333334H405.3333333333333V234.6666666666667H362.6666666666667V256H426.6666666666667z" />
    <glyph glyph-name="arrange-bring-to-front"
      unicode="&#xF03E;"
      horiz-adv-x="512" d=" M192 298.6666666666667V341.3333333333334H85.3333333333333V234.6666666666667H128V213.3333333333334H64V362.6666666666667H213.3333333333333V298.6666666666667H192M277.3333333333333 0V64H298.6666666666667V21.3333333333334H405.3333333333333V128H362.6666666666667V149.3333333333334H426.6666666666667V0H277.3333333333333M170.6666666666667 256H320V106.6666666666667H170.6666666666667V256M192 234.6666666666667V128H298.6666666666667V234.6666666666667H192z" />
    <glyph glyph-name="arrange-send-backward"
      unicode="&#xF03F;"
      horiz-adv-x="512" d=" M128 298.6666666666667H213.3333333333333V277.3333333333334H164.48L307.6266666666667 133.9733333333334L292.6933333333334 119.0400000000001L149.3333333333333 262.1866666666667V213.3333333333334H128V298.6666666666667M426.6666666666667 0H170.6666666666667V192L192 170.6666666666667V21.3333333333334H405.3333333333333V234.6666666666667H256L234.6666666666667 256H426.6666666666667V0M64 106.6666666666667V362.6666666666667H320V298.6666666666667H298.6666666666667V341.3333333333334H85.3333333333333V128H128V106.6666666666667H64z" />
    <glyph glyph-name="arrange-send-to-back"
      unicode="&#xF040;"
      horiz-adv-x="512" d=" M192 341.3333333333334H85.3333333333333V234.6666666666667H192V341.3333333333334M213.3333333333333 213.3333333333334H64V362.6666666666667H213.3333333333333V213.3333333333334M277.3333333333333 0V149.3333333333334H426.6666666666667V0H277.3333333333333M298.6666666666667 21.3333333333334H405.3333333333333V128H298.6666666666667V21.3333333333334M341.3333333333333 277.3333333333334V192H320V256H256V277.3333333333334H341.3333333333333M149.3333333333333 85.3333333333334V170.6666666666667H170.6666666666667V106.6666666666667H234.6666666666667V85.3333333333334H149.3333333333333z" />
    <glyph glyph-name="arrow-down"
      unicode="&#xF045;"
      horiz-adv-x="512" d=" M256 341.3333333333334V80L368 192L384 177.92L245.3333333333333 39.2533333333333L106.6666666666667 177.92L122.6666666666667 192L234.6666666666667 80V341.3333333333334H256z" />
    <glyph glyph-name="arrow-down-circle"
      unicode="&#xFCB7;"
      horiz-adv-x="512" d=" M256 298.6666666666667V122.6666666666667L325.3333333333333 192L341.3333333333333 177.92L245.3333333333333 81.92L149.3333333333333 177.92L165.3333333333333 192L234.6666666666667 122.6666666666667V298.6666666666667H256M245.3333333333333 -21.3333333333333C133.5466666666667 -21.3333333333333 42.6666666666667 69.3333333333334 42.6666666666667 181.3333333333334S133.3333333333333 384 245.3333333333333 384S448 293.3333333333334 448 181.3333333333334S357.3333333333333 -21.3333333333333 245.3333333333333 -21.3333333333333M245.3333333333333 0C345.6 0 426.6666666666667 81.28 426.6666666666667 181.3333333333334C426.6666666666667 281.3866666666667 345.3866666666667 362.6666666666667 245.3333333333333 362.6666666666667C145.28 362.6666666666667 64 281.3866666666667 64 181.3333333333334C64 81.28 145.28 0 245.3333333333333 0z" />
    <glyph glyph-name="arrow-left"
      unicode="&#xF04D;"
      horiz-adv-x="512" d=" M405.3333333333333 170.6666666666667H144L256 58.6666666666667L241.92 42.6666666666667L103.2533333333333 181.3333333333334L241.92 320L256 304L144 192H405.3333333333333V170.6666666666667z" />
    <glyph glyph-name="arrow-left-circle"
      unicode="&#xFCB9;"
      horiz-adv-x="512" d=" M362.6666666666667 170.6666666666667H186.6666666666667L256 101.3333333333334L241.92 85.3333333333334L145.92 181.3333333333334L241.92 277.3333333333334L256 261.3333333333334L186.6666666666667 192H362.6666666666667V170.6666666666667M42.6666666666667 181.3333333333334C42.6666666666667 293.3333333333334 133.3333333333333 384 245.3333333333333 384S448 293.3333333333334 448 181.3333333333334S357.3333333333333 -21.3333333333333 245.3333333333333 -21.3333333333333S42.6666666666667 69.3333333333334 42.6666666666667 181.3333333333334M64 181.3333333333334C64 81.28 145.28 0 245.3333333333333 0C345.3866666666667 0 426.6666666666667 81.28 426.6666666666667 181.3333333333334C426.6666666666667 281.3866666666667 345.3866666666667 362.6666666666667 245.3333333333333 362.6666666666667C145.28 362.6666666666667 64 281.3866666666667 64 181.3333333333334z" />
    <glyph glyph-name="arrow-right"
      unicode="&#xF054;"
      horiz-adv-x="512" d=" M85.3333333333333 192H346.6666666666667L234.6666666666667 304L248.7466666666667 320L387.4133333333333 181.3333333333334L248.7466666666667 42.6666666666667L234.6666666666667 58.6666666666667L346.6666666666667 170.6666666666667H85.3333333333333V192z" />
    <glyph glyph-name="arrow-right-circle"
      unicode="&#xFCBB;"
      horiz-adv-x="512" d=" M128 192H304L234.6666666666667 261.3333333333334L248.96 277.3333333333334L344.9600000000001 181.3333333333334L248.9600000000001 85.3333333333334L234.6666666666667 101.3333333333334L304 170.6666666666667H128V192M448 181.3333333333334C448 69.3333333333334 357.3333333333333 -21.3333333333333 245.3333333333333 -21.3333333333333C133.5466666666667 -21.3333333333333 42.6666666666667 69.3333333333334 42.6666666666667 181.3333333333334S133.3333333333333 384 245.3333333333333 384S448 293.3333333333334 448 181.3333333333334M426.6666666666667 181.3333333333334C426.6666666666667 281.3866666666667 345.3866666666667 362.6666666666667 245.3333333333333 362.6666666666667C145.28 362.6666666666667 64 281.3866666666667 64 181.3333333333334C64 81.28 145.28 0 245.3333333333333 0C345.6 0 426.6666666666667 81.28 426.6666666666667 181.3333333333334z" />
    <glyph glyph-name="arrow-up"
      unicode="&#xF05D;"
      horiz-adv-x="512" d=" M234.6666666666667 21.3333333333334V282.6666666666667L122.6666666666667 170.6666666666667L106.6666666666667 184.7466666666667L245.3333333333333 323.4133333333334L384 184.7466666666667L368 170.6666666666667L256 282.6666666666667V21.3333333333334H234.6666666666667z" />
    <glyph glyph-name="arrow-up-circle"
      unicode="&#xFCBD;"
      horiz-adv-x="512" d=" M234.6666666666667 64V240L165.3333333333333 170.6666666666667L149.3333333333333 184.7466666666667L245.3333333333333 280.7466666666667L341.3333333333333 184.7466666666667L325.3333333333333 170.6666666666667L256 240V64H234.6666666666667M245.3333333333333 384C357.3333333333333 384 448 293.3333333333334 448 181.3333333333334S357.3333333333333 -21.3333333333333 245.3333333333333 -21.3333333333333S42.6666666666667 69.3333333333334 42.6666666666667 181.3333333333334S133.3333333333333 384 245.3333333333333 384M245.3333333333333 362.6666666666667C145.28 362.6666666666667 64 281.3866666666667 64 181.3333333333334C64 81.28 145.28 0 245.3333333333333 0C345.3866666666667 0 426.6666666666667 81.28 426.6666666666667 181.3333333333334C426.6666666666667 281.3866666666667 345.3866666666667 362.6666666666667 245.3333333333333 362.6666666666667z" />
    <glyph glyph-name="bank"
      unicode="&#xF070;"
      horiz-adv-x="512" d=" M234.6666666666667 394.6666666666667L426.6666666666667 298.6666666666667V256H42.6666666666667V298.6666666666667L234.6666666666667 394.6666666666667M320 234.6666666666667H405.3333333333333V64H320V234.6666666666667M42.6666666666667 -21.3333333333333V42.6666666666667H426.6666666666667V-21.3333333333333H42.6666666666667M192 234.6666666666667H277.3333333333333V64H192V234.6666666666667M64 234.6666666666667H149.3333333333333V64H64V234.6666666666667M64 21.3333333333334V0H405.3333333333333V21.3333333333334H64M85.3333333333333 213.3333333333334V85.3333333333334H128V213.3333333333334H85.3333333333333M213.3333333333333 213.3333333333334V85.3333333333334H256V213.3333333333334H213.3333333333333M341.3333333333333 213.3333333333334V85.3333333333334H384V213.3333333333334H341.3333333333333M64 277.3333333333334H405.3333333333333V285.8666666666667L234.6666666666667 371.6266666666667L64 285.8666666666667V277.3333333333334z" />
    <glyph glyph-name="bell"
      unicode="&#xF09A;"
      horiz-adv-x="512" d=" M256 352C256 357.9733333333334 251.3066666666667 362.6666666666667 245.3333333333333 362.6666666666667S234.6666666666667 357.9733333333334 234.6666666666667 352V319.36C186.6666666666667 314.0266666666667 149.3333333333333 273.4933333333334 149.3333333333333 224V97.92L115.4133333333333 64H375.2533333333334L341.3333333333333 97.92V224C341.3333333333333 273.4933333333334 304 314.0266666666667 256 319.36V352M245.3333333333333 384C263.04 384 277.3333333333333 369.7066666666667 277.3333333333333 352V336.8533333333334C326.6133333333334 322.9866666666667 362.6666666666667 277.3333333333334 362.6666666666667 224V106.6666666666667L426.6666666666667 42.6666666666667H64L128 106.6666666666667V224C128 277.3333333333334 164.0533333333334 322.9866666666667 213.3333333333333 336.8533333333334V352C213.3333333333333 369.7066666666667 227.6266666666667 384 245.3333333333333 384M245.3333333333333 -21.3333333333333C219.52 -21.3333333333333 197.9733333333333 -2.9866666666667 193.0666666666667 21.3333333333334H215.2533333333333C219.52 8.96 231.4666666666667 0 245.3333333333333 0C259.2 0 271.1466666666667 8.96 275.4133333333333 21.3333333333334H297.6C292.6933333333333 -2.9866666666667 271.1466666666667 -21.3333333333333 245.3333333333333 -21.3333333333333z" />
    <glyph glyph-name="bell-off"
      unicode="&#xF09B;"
      horiz-adv-x="512" d=" M59.52 352.8533333333334L74.6666666666667 368L432 10.6666666666667L416.8533333333333 -4.48L369.92 42.6666666666667H64L128 106.6666666666667V224C128 241.7066666666667 131.84 258.5600000000001 138.6666666666667 273.4933333333334L59.52 352.8533333333334M256 352C256 357.9733333333334 251.3066666666667 362.6666666666667 245.3333333333333 362.6666666666667S234.6666666666667 357.9733333333334 234.6666666666667 352V319.36C213.3333333333333 317.0133333333333 193.92 307.6266666666667 179.2 293.5466666666667L164.0533333333334 308.6933333333334C177.7066666666667 321.7066666666667 194.56 331.52 213.3333333333333 336.8533333333334V352C213.3333333333333 369.7066666666667 227.6266666666667 384 245.3333333333333 384S277.3333333333333 369.7066666666667 277.3333333333333 352V336.8533333333334C326.6133333333334 322.9866666666667 362.6666666666667 277.3333333333334 362.6666666666667 224V110.08L341.3333333333333 131.4133333333334V224C341.3333333333333 273.4933333333334 304 314.0266666666667 256 319.36V352M149.3333333333333 224V97.92L115.4133333333333 64H348.5866666666667L155.3066666666667 257.2800000000001C151.4666666666667 246.8266666666667 149.3333333333333 235.7333333333334 149.3333333333333 224M245.3333333333333 -21.3333333333333C219.52 -21.3333333333333 197.9733333333333 -2.9866666666667 193.0666666666667 21.3333333333334H215.2533333333333C219.52 8.96 231.4666666666667 0 245.3333333333333 0C259.2 0 271.1466666666667 8.96 275.4133333333333 21.3333333333334H297.6C292.6933333333333 -2.9866666666667 271.1466666666667 -21.3333333333333 245.3333333333333 -21.3333333333333z" />
    <glyph glyph-name="bluetooth"
      unicode="&#xF0AF;"
      horiz-adv-x="512" d=" M234.6666666666667 384H256L359.4666666666667 280.5333333333334L260.48 181.3333333333334L359.4666666666667 82.1333333333334L256 -21.3333333333333H234.6666666666667V155.52L139.7333333333333 60.5866666666667L124.5866666666667 75.7333333333334L230.1866666666667 181.3333333333334L124.5866666666667 286.9333333333334L139.7333333333333 302.0800000000001L234.6666666666667 207.1466666666667V384M256 353.92V207.1466666666667L329.3866666666667 280.5333333333334L256 353.92M256 8.7466666666667L329.3866666666667 82.1333333333334L256 155.52V8.7466666666667z" />
    <glyph glyph-name="book"
      unicode="&#xF0BA;"
      horiz-adv-x="512" d=" M149.3333333333333 384H341.3333333333333C376.7466666666667 384 405.3333333333333 355.4133333333334 405.3333333333333 320V42.6666666666667C405.3333333333333 7.2533333333333 376.7466666666667 -21.3333333333333 341.3333333333333 -21.3333333333333H149.3333333333333C113.92 -21.3333333333333 85.3333333333333 7.2533333333333 85.3333333333333 42.6666666666667V320C85.3333333333333 355.4133333333334 113.92 384 149.3333333333333 384M149.3333333333333 362.6666666666667C125.8666666666667 362.6666666666667 106.6666666666667 343.4666666666667 106.6666666666667 320V42.6666666666667C106.6666666666667 19.2 125.8666666666667 0 149.3333333333333 0H341.3333333333333C364.8 0 384 19.2 384 42.6666666666667V320C384 343.4666666666667 364.8 362.6666666666667 341.3333333333333 362.6666666666667H277.3333333333333V219.7333333333334L213.3333333333333 264.5333333333334L149.3333333333333 219.7333333333334V362.6666666666667M256 362.6666666666667H170.6666666666667V260.6933333333334L213.3333333333333 290.56L256 260.6933333333334V362.6666666666667z" />
    <glyph glyph-name="book-multiple"
      unicode="&#xF0BB;"
      horiz-adv-x="512" d=" M170.6666666666667 384H362.6666666666667C398.08 384 426.6666666666667 355.4133333333334 426.6666666666667 320V42.6666666666667C426.6666666666667 7.2533333333333 398.08 -21.3333333333333 362.6666666666667 -21.3333333333333H170.6666666666667C135.2533333333333 -21.3333333333333 106.6666666666667 7.2533333333333 106.6666666666667 42.6666666666667V320C106.6666666666667 355.4133333333334 135.2533333333333 384 170.6666666666667 384M170.6666666666667 362.6666666666667C147.2 362.6666666666667 128 343.4666666666667 128 320V42.6666666666667C128 19.2 147.2 0 170.6666666666667 0H362.6666666666667C386.1333333333334 0 405.3333333333333 19.2 405.3333333333333 42.6666666666667V320C405.3333333333333 343.4666666666667 386.1333333333334 362.6666666666667 362.6666666666667 362.6666666666667H298.6666666666667V219.7333333333334L234.6666666666667 264.5333333333334L170.6666666666667 219.7333333333334V362.6666666666667M277.3333333333333 362.6666666666667H192V260.6933333333334L234.6666666666667 290.56L277.3333333333333 260.6933333333334V362.6666666666667M170.6666666666667 -64C111.7866666666667 -64 64 -16.2133333333333 64 42.6666666666667V298.6666666666667H85.3333333333333V42.6666666666667C85.3333333333333 -4.48 123.52 -42.6666666666666 170.6666666666667 -42.6666666666666H341.3333333333333V-64H170.6666666666667z" />
    <glyph glyph-name="book-plus"
      unicode="&#xF5DB;"
      horiz-adv-x="512" d=" M149.3333333333333 384H341.3333333333333C376.7466666666667 384 405.3333333333333 355.4133333333334 405.3333333333333 320V42.6666666666667C405.3333333333333 7.2533333333333 376.7466666666667 -21.3333333333333 341.3333333333333 -21.3333333333333H149.3333333333333C113.92 -21.3333333333333 85.3333333333333 7.2533333333333 85.3333333333333 42.6666666666667V320C85.3333333333333 355.4133333333334 113.92 384 149.3333333333333 384M149.3333333333333 362.6666666666667C125.8666666666667 362.6666666666667 106.6666666666667 343.4666666666667 106.6666666666667 320V42.6666666666667C106.6666666666667 19.2 125.8666666666667 0 149.3333333333333 0H341.3333333333333C364.8 0 384 19.2 384 42.6666666666667V320C384 343.4666666666667 364.8 362.6666666666667 341.3333333333333 362.6666666666667H277.3333333333333V219.7333333333334L213.3333333333333 264.5333333333334L149.3333333333333 219.7333333333334V362.6666666666667M256 362.6666666666667H170.6666666666667V260.6933333333334L213.3333333333333 290.56L256 260.6933333333334V362.6666666666667M192 42.6666666666667V85.3333333333334H149.3333333333333V106.6666666666667H192V149.3333333333334H213.3333333333333V106.6666666666667H256V85.3333333333334H213.3333333333333V42.6666666666667H192z" />
    <glyph glyph-name="bookmark"
      unicode="&#xF0C0;"
      horiz-adv-x="512" d=" M170.6666666666667 384H341.3333333333333C376.7466666666667 384 405.3333333333333 355.4133333333334 405.3333333333333 320V0L256 64L106.6666666666667 0V320C106.6666666666667 355.4133333333334 135.2533333333333 384 170.6666666666667 384M170.6666666666667 362.6666666666667C147.2 362.6666666666667 128 343.4666666666667 128 320V32L256 86.6133333333334L384 32V320C384 343.4666666666667 364.8 362.6666666666667 341.3333333333333 362.6666666666667H170.6666666666667z" />
    <glyph glyph-name="border-all"
      unicode="&#xF0C7;"
      horiz-adv-x="512" d=" M64 362.6666666666667H426.6666666666667V0H64V362.6666666666667M85.3333333333333 341.3333333333334V192H234.6666666666667V341.3333333333334H85.3333333333333M405.3333333333333 192V341.3333333333334H256V192H405.3333333333333M85.3333333333333 21.3333333333334H234.6666666666667V170.6666666666667H85.3333333333333V21.3333333333334M405.3333333333333 21.3333333333334V170.6666666666667H256V21.3333333333334H405.3333333333333z" />
    <glyph glyph-name="border-bottom"
      unicode="&#xF0C8;"
      horiz-adv-x="512" d=" M64 21.3333333333334H234.6666666666667V42.6666666666667H256V21.3333333333334H426.6666666666667V0H64V21.3333333333334M426.6666666666667 64H405.3333333333333V106.6666666666667H426.6666666666667V64M85.3333333333333 149.3333333333334H64V213.3333333333334H85.3333333333333V192H106.6666666666667V170.6666666666667H85.3333333333333V149.3333333333334M85.3333333333333 64H64V106.6666666666667H85.3333333333333V64M256 170.6666666666667H234.6666666666667V192H256V170.6666666666667M64 341.3333333333334V362.6666666666667H85.3333333333333V341.3333333333334H64M64 298.6666666666667H85.3333333333333V256H64V298.6666666666667M320 341.3333333333334V362.6666666666667H362.6666666666667V341.3333333333334H320M128 341.3333333333334V362.6666666666667H170.6666666666667V341.3333333333334H128M213.3333333333333 341.3333333333334V362.6666666666667H277.3333333333333V341.3333333333334H256V320H234.6666666666667V341.3333333333334H213.3333333333333M405.3333333333333 149.3333333333334V170.6666666666667H384V192H405.3333333333333V213.3333333333334H426.6666666666667V149.3333333333334H405.3333333333333M426.6666666666667 256H405.3333333333333V298.6666666666667H426.6666666666667V256M405.3333333333333 341.3333333333334V362.6666666666667H426.6666666666667V341.3333333333334H405.3333333333333M298.6666666666667 170.6666666666667V192H341.3333333333333V170.6666666666667H298.6666666666667M256 85.3333333333334H234.6666666666667V128H256V85.3333333333334M256 234.6666666666667H234.6666666666667V277.3333333333334H256V234.6666666666667M149.3333333333333 170.6666666666667V192H192V170.6666666666667H149.3333333333333z" />
    <glyph glyph-name="border-horizontal"
      unicode="&#xF0CA;"
      horiz-adv-x="512" d=" M426.6666666666667 64H405.3333333333333V106.6666666666667H426.6666666666667V64M85.3333333333333 149.3333333333334H64V213.3333333333334H85.3333333333333V192H405.3333333333333V213.3333333333334H426.6666666666667V149.3333333333334H405.3333333333333V170.6666666666667H85.3333333333333V149.3333333333334M85.3333333333333 64H64V106.6666666666667H85.3333333333333V64M64 341.3333333333334V362.6666666666667H85.3333333333333V341.3333333333334H64M64 298.6666666666667H85.3333333333333V256H64V298.6666666666667M320 341.3333333333334V362.6666666666667H362.6666666666667V341.3333333333334H320M128 341.3333333333334V362.6666666666667H170.6666666666667V341.3333333333334H128M213.3333333333333 341.3333333333334V362.6666666666667H277.3333333333333V341.3333333333334H256V320H234.6666666666667V341.3333333333334H213.3333333333333M426.6666666666667 256H405.3333333333333V298.6666666666667H426.6666666666667V256M405.3333333333333 341.3333333333334V362.6666666666667H426.6666666666667V341.3333333333334H405.3333333333333M256 85.3333333333334H234.6666666666667V128H256V85.3333333333334M256 234.6666666666667H234.6666666666667V277.3333333333334H256V234.6666666666667M64 21.3333333333334H85.3333333333333V0H64V21.3333333333334M320 21.3333333333334H362.6666666666667V0H320V21.3333333333334M128 21.3333333333334H170.6666666666667V0H128V21.3333333333334M213.3333333333333 21.3333333333334H234.6666666666667V42.6666666666667H256V21.3333333333334H277.3333333333333V0H213.3333333333333V21.3333333333334M405.3333333333333 21.3333333333334H426.6666666666667V0H405.3333333333333V21.3333333333334z" />
    <glyph glyph-name="border-inside"
      unicode="&#xF0CB;"
      horiz-adv-x="512" d=" M362.6666666666667 362.6666666666667V341.3333333333334H320V362.6666666666667H362.6666666666667M277.3333333333333 21.3333333333334V0H213.3333333333333V21.3333333333334H234.6666666666667V170.6666666666667H85.3333333333333V149.3333333333334H64V213.3333333333334H85.3333333333333V192H234.6666666666667V341.3333333333334H213.3333333333333V362.6666666666667H277.3333333333333V341.3333333333334H256V192H405.3333333333333V213.3333333333334H426.6666666666667V149.3333333333334H405.3333333333333V170.6666666666667H256V21.3333333333334H277.3333333333333M362.6666666666667 21.3333333333334V0H320V21.3333333333334H362.6666666666667M85.3333333333333 0H64V21.3333333333334H85.3333333333333V0M128 0V21.3333333333334H170.6666666666667V0H128M85.3333333333333 256H64V298.6666666666667H85.3333333333333V256M85.3333333333333 64H64V106.6666666666667H85.3333333333333V64M170.6666666666667 362.6666666666667V341.3333333333334H128V362.6666666666667H170.6666666666667M85.3333333333333 341.3333333333334H64V362.6666666666667H85.3333333333333V341.3333333333334M405.3333333333333 0V21.3333333333334H426.6666666666667V0H405.3333333333333M405.3333333333333 256V298.6666666666667H426.6666666666667V256H405.3333333333333M405.3333333333333 64V106.6666666666667H426.6666666666667V64H405.3333333333333M405.3333333333333 341.3333333333334V362.6666666666667H426.6666666666667V341.3333333333334H405.3333333333333z" />
    <glyph glyph-name="border-left"
      unicode="&#xF0CC;"
      horiz-adv-x="512" d=" M85.3333333333333 362.6666666666667V192H106.6666666666667V170.6666666666667H85.3333333333333V0H64V362.6666666666667H85.3333333333333M128 0V21.3333333333334H170.6666666666667V0H128M213.3333333333333 341.3333333333334V362.6666666666667H277.3333333333333V341.3333333333334H256V320H234.6666666666667V341.3333333333334H213.3333333333333M128 341.3333333333334V362.6666666666667H170.6666666666667V341.3333333333334H128M234.6666666666667 170.6666666666667V192H256V170.6666666666667H234.6666666666667M405.3333333333333 362.6666666666667H426.6666666666667V341.3333333333334H405.3333333333333V362.6666666666667M362.6666666666667 362.6666666666667V341.3333333333334H320V362.6666666666667H362.6666666666667M405.3333333333333 106.6666666666667H426.6666666666667V64H405.3333333333333V106.6666666666667M405.3333333333333 298.6666666666667H426.6666666666667V256H405.3333333333333V298.6666666666667M405.3333333333333 213.3333333333334H426.6666666666667V149.3333333333334H405.3333333333333V170.6666666666667H384V192H405.3333333333333V213.3333333333334M213.3333333333333 21.3333333333334H234.6666666666667V42.6666666666667H256V21.3333333333334H277.3333333333333V0H213.3333333333333V21.3333333333334M320 0V21.3333333333334H362.6666666666667V0H320M405.3333333333333 21.3333333333334H426.6666666666667V0H405.3333333333333V21.3333333333334M234.6666666666667 128H256V85.3333333333334H234.6666666666667V128M149.3333333333333 170.6666666666667V192H192V170.6666666666667H149.3333333333333M298.6666666666667 170.6666666666667V192H341.3333333333333V170.6666666666667H298.6666666666667M234.6666666666667 277.3333333333334H256V234.6666666666667H234.6666666666667V277.3333333333334z" />
    <glyph glyph-name="border-none"
      unicode="&#xF0CD;"
      horiz-adv-x="512" d=" M426.6666666666667 64H405.3333333333333V106.6666666666667H426.6666666666667V64M85.3333333333333 149.3333333333334H64V213.3333333333334H85.3333333333333V192H106.6666666666667V170.6666666666667H85.3333333333333V149.3333333333334M405.3333333333333 192V213.3333333333334H426.6666666666667V149.3333333333334H405.3333333333333V170.6666666666667H384V192H405.3333333333333M298.6666666666667 170.6666666666667V192H341.3333333333333V170.6666666666667H298.6666666666667M234.6666666666667 170.6666666666667V192H256V170.6666666666667H234.6666666666667M149.3333333333333 170.6666666666667V192H192V170.6666666666667H149.3333333333333M85.3333333333333 64H64V106.6666666666667H85.3333333333333V64M64 341.3333333333334V362.6666666666667H85.3333333333333V341.3333333333334H64M64 298.6666666666667H85.3333333333333V256H64V298.6666666666667M320 341.3333333333334V362.6666666666667H362.6666666666667V341.3333333333334H320M128 341.3333333333334V362.6666666666667H170.6666666666667V341.3333333333334H128M213.3333333333333 341.3333333333334V362.6666666666667H277.3333333333333V341.3333333333334H256V320H234.6666666666667V341.3333333333334H213.3333333333333M426.6666666666667 256H405.3333333333333V298.6666666666667H426.6666666666667V256M405.3333333333333 341.3333333333334V362.6666666666667H426.6666666666667V341.3333333333334H405.3333333333333M256 85.3333333333334H234.6666666666667V128H256V85.3333333333334M256 234.6666666666667H234.6666666666667V277.3333333333334H256V234.6666666666667M64 21.3333333333334H85.3333333333333V0H64V21.3333333333334M320 21.3333333333334H362.6666666666667V0H320V21.3333333333334M128 21.3333333333334H170.6666666666667V0H128V21.3333333333334M213.3333333333333 21.3333333333334H234.6666666666667V42.6666666666667H256V21.3333333333334H277.3333333333333V0H213.3333333333333V21.3333333333334M405.3333333333333 21.3333333333334H426.6666666666667V0H405.3333333333333V21.3333333333334z" />
    <glyph glyph-name="border-outside"
      unicode="&#xF0CE;"
      horiz-adv-x="512" d=" M64 362.6666666666667H426.6666666666667V0H64V362.6666666666667M85.3333333333333 341.3333333333334V192H106.6666666666667V170.6666666666667H85.3333333333333V21.3333333333334H234.6666666666667V42.6666666666667H256V21.3333333333334H405.3333333333333V170.6666666666667H384V192H405.3333333333333V341.3333333333334H256V320H234.6666666666667V341.3333333333334H85.3333333333333M149.3333333333333 192H192V170.6666666666667H149.3333333333333V192M234.6666666666667 192H256V170.6666666666667H234.6666666666667V192M234.6666666666667 128H256V85.3333333333334H234.6666666666667V128M298.6666666666667 192H341.3333333333333V170.6666666666667H298.6666666666667V192M234.6666666666667 234.6666666666667V277.3333333333334H256V234.6666666666667H234.6666666666667z" />
    <glyph glyph-name="border-right"
      unicode="&#xF0CF;"
      horiz-adv-x="512" d=" M405.3333333333333 0V170.6666666666667H384V192H405.3333333333333V362.6666666666667H426.6666666666667V0H405.3333333333333M362.6666666666667 362.6666666666667V341.3333333333334H320V362.6666666666667H362.6666666666667M277.3333333333333 21.3333333333334V0H213.3333333333333V21.3333333333334H234.6666666666667V42.6666666666667H256V21.3333333333334H277.3333333333333M362.6666666666667 21.3333333333334V0H320V21.3333333333334H362.6666666666667M256 192V170.6666666666667H234.6666666666667V192H256M85.3333333333333 0H64V21.3333333333334H85.3333333333333V0M128 0V21.3333333333334H170.6666666666667V0H128M85.3333333333333 256H64V298.6666666666667H85.3333333333333V256M85.3333333333333 64H64V106.6666666666667H85.3333333333333V64M85.3333333333333 149.3333333333334H64V213.3333333333334H85.3333333333333V192H106.6666666666667V170.6666666666667H85.3333333333333V149.3333333333334M277.3333333333333 341.3333333333334H256V320H234.6666666666667V341.3333333333334H213.3333333333333V362.6666666666667H277.3333333333333V341.3333333333334M170.6666666666667 362.6666666666667V341.3333333333334H128V362.6666666666667H170.6666666666667M85.3333333333333 341.3333333333334H64V362.6666666666667H85.3333333333333V341.3333333333334M256 234.6666666666667H234.6666666666667V277.3333333333334H256V234.6666666666667M341.3333333333333 192V170.6666666666667H298.6666666666667V192H341.3333333333333M192 192V170.6666666666667H149.3333333333333V192H192M256 85.3333333333334H234.6666666666667V128H256V85.3333333333334z" />
    <glyph glyph-name="border-top"
      unicode="&#xF0D1;"
      horiz-adv-x="512" d=" M426.6666666666667 341.3333333333334H256V320H234.6666666666667V341.3333333333334H64V362.6666666666667H426.6666666666667V341.3333333333334M64 298.6666666666667H85.3333333333333V256H64V298.6666666666667M405.3333333333333 213.3333333333334H426.6666666666667V149.3333333333334H405.3333333333333V170.6666666666667H384V192H405.3333333333333V213.3333333333334M405.3333333333333 298.6666666666667H426.6666666666667V256H405.3333333333333V298.6666666666667M234.6666666666667 192H256V170.6666666666667H234.6666666666667V192M426.6666666666667 21.3333333333334V0H405.3333333333333V21.3333333333334H426.6666666666667M426.6666666666667 64H405.3333333333333V106.6666666666667H426.6666666666667V64M170.6666666666667 21.3333333333334V0H128V21.3333333333334H170.6666666666667M362.6666666666667 21.3333333333334V0H320V21.3333333333334H362.6666666666667M277.3333333333333 21.3333333333334V0H213.3333333333333V21.3333333333334H234.6666666666667V42.6666666666667H256V21.3333333333334H277.3333333333333M85.3333333333333 213.3333333333334V192H106.6666666666667V170.6666666666667H85.3333333333333V149.3333333333334H64V213.3333333333334H85.3333333333333M64 106.6666666666667H85.3333333333333V64H64V106.6666666666667M85.3333333333333 21.3333333333334V0H64V21.3333333333334H85.3333333333333M192 192V170.6666666666667H149.3333333333333V192H192M234.6666666666667 277.3333333333334H256V234.6666666666667H234.6666666666667V277.3333333333334M234.6666666666667 128H256V85.3333333333334H234.6666666666667V128M341.3333333333333 192V170.6666666666667H298.6666666666667V192H341.3333333333333z" />
    <glyph glyph-name="border-vertical"
      unicode="&#xF0D2;"
      horiz-adv-x="512" d=" M362.6666666666667 362.6666666666667V341.3333333333334H320V362.6666666666667H362.6666666666667M277.3333333333333 21.3333333333334V0H213.3333333333333V21.3333333333334H234.6666666666667V341.3333333333334H213.3333333333333V362.6666666666667H277.3333333333333V341.3333333333334H256V21.3333333333334H277.3333333333333M362.6666666666667 21.3333333333334V0H320V21.3333333333334H362.6666666666667M85.3333333333333 0H64V21.3333333333334H85.3333333333333V0M128 0V21.3333333333334H170.6666666666667V0H128M85.3333333333333 256H64V298.6666666666667H85.3333333333333V256M85.3333333333333 64H64V106.6666666666667H85.3333333333333V64M85.3333333333333 149.3333333333334H64V213.3333333333334H85.3333333333333V192H106.6666666666667V170.6666666666667H85.3333333333333V149.3333333333334M170.6666666666667 362.6666666666667V341.3333333333334H128V362.6666666666667H170.6666666666667M85.3333333333333 341.3333333333334H64V362.6666666666667H85.3333333333333V341.3333333333334M341.3333333333333 192V170.6666666666667H298.6666666666667V192H341.3333333333333M192 192V170.6666666666667H149.3333333333333V192H192M405.3333333333333 0V21.3333333333334H426.6666666666667V0H405.3333333333333M405.3333333333333 256V298.6666666666667H426.6666666666667V256H405.3333333333333M405.3333333333333 64V106.6666666666667H426.6666666666667V64H405.3333333333333M405.3333333333333 149.3333333333334V170.6666666666667H384V192H405.3333333333333V213.3333333333334H426.6666666666667V149.3333333333334H405.3333333333333M405.3333333333333 341.3333333333334V362.6666666666667H426.6666666666667V341.3333333333334H405.3333333333333z" />
    <glyph glyph-name="briefcase"
      unicode="&#xF0D6;"
      horiz-adv-x="512" d=" M106.6666666666667 298.6666666666667H170.6666666666667V341.3333333333334L213.3333333333333 384H277.3333333333333L320 341.3333333333334V298.6666666666667H384C419.4133333333333 298.6666666666667 448 270.0800000000001 448 234.6666666666667V64C448 28.5866666666667 419.4133333333333 0 384 0H106.6666666666667C71.2533333333333 0 42.6666666666667 28.5866666666667 42.6666666666667 64V234.6666666666667C42.6666666666667 270.0800000000001 71.2533333333333 298.6666666666667 106.6666666666667 298.6666666666667M222.08 362.6666666666667L192 332.5866666666667V298.6666666666667H298.6666666666667V332.5866666666667L268.5866666666667 362.6666666666667H222.08M106.6666666666667 277.3333333333334C83.2 277.3333333333334 64 258.1333333333334 64 234.6666666666667V64C64 40.5333333333333 83.2 21.3333333333334 106.6666666666667 21.3333333333334H384C407.4666666666667 21.3333333333334 426.6666666666667 40.5333333333333 426.6666666666667 64V234.6666666666667C426.6666666666667 258.1333333333334 407.4666666666667 277.3333333333334 384 277.3333333333334H106.6666666666667z" />
    <glyph glyph-name="calendar"
      unicode="&#xF0ED;"
      horiz-adv-x="512" d=" M149.3333333333333 405.3333333333333H170.6666666666667C182.4 405.3333333333333 192 395.7333333333334 192 384V362.6666666666667H298.6666666666667V384C298.6666666666667 395.7333333333334 308.2666666666667 405.3333333333333 320 405.3333333333333H341.3333333333333C353.0666666666667 405.3333333333333 362.6666666666667 395.7333333333334 362.6666666666667 384V362.6666666666667C398.08 362.6666666666667 426.6666666666667 334.0800000000001 426.6666666666667 298.6666666666667V64C426.6666666666667 28.5866666666667 398.08 0 362.6666666666667 0H128C92.5866666666667 0 64 28.5866666666667 64 64V298.6666666666667C64 334.0800000000001 92.5866666666667 362.6666666666667 128 362.6666666666667V384C128 395.7333333333334 137.6 405.3333333333333 149.3333333333333 405.3333333333333M320 362.6666666666667H341.3333333333333V384H320V362.6666666666667M170.6666666666667 362.6666666666667V384H149.3333333333333V362.6666666666667H170.6666666666667M128 341.3333333333334C104.5333333333333 341.3333333333334 85.3333333333333 322.1333333333334 85.3333333333333 298.6666666666667V277.3333333333334H405.3333333333333V298.6666666666667C405.3333333333333 322.1333333333334 386.1333333333334 341.3333333333334 362.6666666666667 341.3333333333334H128M85.3333333333333 64C85.3333333333333 40.5333333333333 104.5333333333333 21.3333333333334 128 21.3333333333334H362.6666666666667C386.1333333333334 21.3333333333334 405.3333333333333 40.5333333333333 405.3333333333333 64V256H85.3333333333333V64M256 170.6666666666667H362.6666666666667V64H256V170.6666666666667M277.3333333333333 149.3333333333334V85.3333333333334H341.3333333333333V149.3333333333334H277.3333333333333z" />
    <glyph glyph-name="camcorder"
      unicode="&#xF0FC;"
      horiz-adv-x="512" d=" M106.6666666666667 298.6666666666667H298.6666666666667C322.1333333333334 298.6666666666667 341.3333333333333 279.4666666666667 341.3333333333333 256V202.6666666666667L426.6666666666667 288V74.6666666666667L341.3333333333333 160V106.6666666666667C341.3333333333333 83.2 322.1333333333334 64 298.6666666666667 64H106.6666666666667C83.2 64 64 83.2 64 106.6666666666667V256C64 279.4666666666667 83.2 298.6666666666667 106.6666666666667 298.6666666666667M106.6666666666667 277.3333333333334C94.9333333333333 277.3333333333334 85.3333333333333 267.7333333333334 85.3333333333333 256V106.6666666666667C85.3333333333333 94.9333333333333 94.9333333333333 85.3333333333334 106.6666666666667 85.3333333333334H298.6666666666667C310.4 85.3333333333334 320 94.9333333333333 320 106.6666666666667V256C320 267.7333333333334 310.4 277.3333333333334 298.6666666666667 277.3333333333334H106.6666666666667M405.3333333333333 236.5866666666667L350.08 181.3333333333334L405.3333333333333 126.0800000000001V236.5866666666667z" />
    <glyph glyph-name="camera"
      unicode="&#xF100;"
      horiz-adv-x="512" d=" M245.3333333333333 277.3333333333334C298.6666666666667 277.3333333333334 341.3333333333333 234.6666666666667 341.3333333333333 181.3333333333334S298.6666666666667 85.3333333333334 245.3333333333333 85.3333333333334S149.3333333333333 128 149.3333333333333 181.3333333333334S192 277.3333333333334 245.3333333333333 277.3333333333334M245.3333333333333 256C204.16 256 170.6666666666667 222.5066666666667 170.6666666666667 181.3333333333334S204.16 106.6666666666667 245.3333333333333 106.6666666666667S320 140.16 320 181.3333333333334S286.5066666666667 256 245.3333333333333 256M106.6666666666667 341.3333333333334H149.3333333333333L192 384H298.6666666666667L341.3333333333333 341.3333333333334H384C419.4133333333333 341.3333333333334 448 312.7466666666667 448 277.3333333333334V85.3333333333334C448 49.92 419.4133333333333 21.3333333333334 384 21.3333333333334H106.6666666666667C71.2533333333333 21.3333333333334 42.6666666666667 49.92 42.6666666666667 85.3333333333334V277.3333333333334C42.6666666666667 312.7466666666667 71.2533333333333 341.3333333333334 106.6666666666667 341.3333333333334M200.7466666666667 362.6666666666667L158.08 320H106.6666666666667C83.2 320 64 300.8 64 277.3333333333334V85.3333333333334C64 61.8666666666667 83.2 42.6666666666667 106.6666666666667 42.6666666666667H384C407.4666666666667 42.6666666666667 426.6666666666667 61.8666666666667 426.6666666666667 85.3333333333334V277.3333333333334C426.6666666666667 300.8 407.4666666666667 320 384 320H332.5866666666667L289.92 362.6666666666667H200.7466666666667z" />
    <glyph glyph-name="cancel"
      unicode="&#xF739;"
      horiz-adv-x="512" d=" M245.3333333333333 -21.3333333333333C133.5466666666667 -21.3333333333333 42.6666666666667 69.3333333333334 42.6666666666667 181.3333333333334S133.3333333333333 384 245.3333333333333 384S448 293.3333333333334 448 181.3333333333334S357.3333333333333 -21.3333333333333 245.3333333333333 -21.3333333333333M245.3333333333333 0C345.6 0 426.6666666666667 81.28 426.6666666666667 181.3333333333334C426.6666666666667 227.6266666666667 409.3866666666667 269.8666666666667 381.0133333333333 301.8666666666667L124.8 45.8666666666667C157.0133333333333 17.28 199.04 0 245.3333333333333 0M245.3333333333333 362.6666666666667C145.28 362.6666666666667 64 281.3866666666667 64 181.3333333333334C64 135.04 81.28 93.0133333333333 109.8666666666667 61.0133333333333L365.8666666666666 317.0133333333333C333.8666666666667 345.3866666666667 291.6266666666667 362.6666666666667 245.3333333333333 362.6666666666667z" />
    <glyph glyph-name="cart"
      unicode="&#xF110;"
      horiz-adv-x="512" d=" M341.3333333333333 64C364.8 64 384 44.8000000000001 384 21.3333333333334S364.8 -21.3333333333333 341.3333333333333 -21.3333333333333S298.6666666666667 -2.1333333333333 298.6666666666667 21.3333333333334S317.8666666666667 64 341.3333333333333 64M341.3333333333333 42.6666666666667C329.6 42.6666666666667 320 33.0666666666667 320 21.3333333333334S329.6 0 341.3333333333333 0S362.6666666666667 9.6 362.6666666666667 21.3333333333334S353.0666666666667 42.6666666666667 341.3333333333333 42.6666666666667M149.3333333333333 64C172.8 64 192 44.8000000000001 192 21.3333333333334S172.8 -21.3333333333333 149.3333333333333 -21.3333333333333S106.6666666666667 -2.1333333333333 106.6666666666667 21.3333333333334S125.8666666666667 64 149.3333333333333 64M149.3333333333333 42.6666666666667C137.6 42.6666666666667 128 33.0666666666667 128 21.3333333333334S137.6 0 149.3333333333333 0S170.6666666666667 9.6 170.6666666666667 21.3333333333334S161.0666666666667 42.6666666666667 149.3333333333333 42.6666666666667M384 320H91.0933333333333L145.4933333333333 192H320C327.04 192 333.2266666666667 195.4133333333334 337.0666666666667 200.5333333333334L401.0666666666667 285.8666666666667C403.84 289.4933333333334 405.3333333333333 293.9733333333334 405.3333333333333 298.6666666666667C405.3333333333333 310.4 395.7333333333334 320 384 320M320 170.6666666666667H146.56L130.1333333333333 137.3866666666667L128 128C128 116.2666666666667 137.6 106.6666666666667 149.3333333333333 106.6666666666667H384V85.3333333333334H149.3333333333333C125.8666666666667 85.3333333333334 106.6666666666667 104.5333333333333 106.6666666666667 128C106.6666666666667 135.4666666666667 108.5866666666667 142.5066666666667 112 148.6933333333334L127.36 180.0533333333334L49.92 362.6666666666667H21.3333333333333V384H64L82.1333333333333 341.3333333333334H384C407.4666666666667 341.3333333333334 426.6666666666667 322.1333333333334 426.6666666666667 298.6666666666667C426.6666666666667 288 423.04 279.04 417.0666666666667 271.7866666666667L354.9866666666667 188.8C347.3066666666667 177.92 334.5066666666667 170.6666666666667 320 170.6666666666667z" />
    <glyph glyph-name="chart-areaspline"
      unicode="&#xF127;"
      horiz-adv-x="512" d=" M64 362.6666666666667H85.3333333333333V64L204.16 270.2933333333334L332.3733333333334 196.2666666666667L409.6 329.8133333333334L427.9466666666666 319.1466666666667L340.2666666666667 167.04L212.0533333333333 241.0666666666667L85.3333333333333 21.3333333333334H134.4L216.96 164.48L227.6266666666667 182.8266666666667L245.9733333333333 172.16L355.84 108.8L426.6666666666667 231.68V0H64V362.6666666666667M363.52 79.7866666666668L235.3066666666667 153.8133333333334L158.9333333333333 21.3333333333334H405.3333333333333V151.8933333333334L363.52 79.7866666666668z" />
    <glyph glyph-name="chart-bar"
      unicode="&#xF128;"
      horiz-adv-x="512" d=" M42.6666666666667 362.6666666666667H64V21.3333333333334H106.6666666666667V234.6666666666667H192V21.3333333333334H234.6666666666667V320H320V21.3333333333334H362.6666666666667V149.3333333333334H448V0H42.6666666666667V362.6666666666667M384 128V21.3333333333334H426.6666666666667V128H384M256 298.6666666666667V21.3333333333334H298.6666666666667V298.6666666666667H256M128 213.3333333333334V21.3333333333334H170.6666666666667V213.3333333333334H128z" />
    <glyph glyph-name="chart-histogram"
      unicode="&#xF129;"
      horiz-adv-x="512" d=" M64 362.6666666666667H85.3333333333333V170.6666666666667H149.3333333333333V298.6666666666667H256V213.3333333333334H341.3333333333333V128H426.6666666666667V0H64V362.6666666666667M341.3333333333333 106.6666666666667V21.3333333333334H405.3333333333333V106.6666666666667H341.3333333333333M256 192V21.3333333333334H320V192H256M170.6666666666667 277.3333333333334V21.3333333333334H234.6666666666667V277.3333333333334H170.6666666666667M85.3333333333333 149.3333333333334V21.3333333333334H149.3333333333333V149.3333333333334H85.3333333333333z" />
    <glyph glyph-name="chart-line"
      unicode="&#xF12A;"
      horiz-adv-x="512" d=" M64 362.6666666666667H85.3333333333333V64L204.3733333333333 270.2933333333334L332.5866666666667 196.2666666666667L409.8133333333334 329.8133333333334L428.16 319.1466666666667L340.48 167.04L212.2666666666667 241.0666666666667L85.3333333333333 21.3333333333334H426.6666666666667V0H64V362.6666666666667z" />
    <glyph glyph-name="chart-pie"
      unicode="&#xF12B;"
      horiz-adv-x="512" d=" M256 384H277.3333333333333C371.6266666666667 384 448 307.6266666666667 448 213.3333333333334V192H256V384M277.3333333333333 213.3333333333334H426.6666666666667C426.6666666666667 295.8933333333333 359.8933333333333 362.6666666666667 277.3333333333333 362.6666666666667V213.3333333333334M213.3333333333333 149.3333333333334H384C384 55.04 307.6266666666667 -21.3333333333333 213.3333333333333 -21.3333333333333S42.6666666666667 55.04 42.6666666666667 149.3333333333334S119.04 320 213.3333333333333 320V149.3333333333334M192 128V297.1733333333334C119.68 286.7200000000001 64 224.64 64 149.3333333333334C64 66.7733333333333 130.7733333333333 0 213.3333333333333 0C288.64 0 350.7200000000001 55.68 361.1733333333333 128H192z" />
    <glyph glyph-name="check"
      unicode="&#xF12C;"
      horiz-adv-x="512" d=" M403.2 275.2000000000001L192 64L86.4 169.6L101.5466666666667 184.7466666666667L192 94.08L388.0533333333333 290.3466666666667L403.2 275.2z" />
    <glyph glyph-name="chevron-double-down"
      unicode="&#xF13C;"
      horiz-adv-x="512" d=" M366.08 286.0800000000001L245.3333333333333 165.3333333333334L124.5866666666667 286.0800000000001L139.7333333333333 301.0133333333333L245.3333333333333 195.4133333333334L350.9333333333333 301.0133333333333L366.08 286.0800000000001M366.08 200.7466666666667L245.3333333333333 80L124.5866666666667 200.7466666666667L139.7333333333333 215.68L245.3333333333333 110.08L350.9333333333333 215.68L366.08 200.7466666666667z" />
    <glyph glyph-name="chevron-double-left"
      unicode="&#xF13D;"
      horiz-adv-x="512" d=" M350.08 60.5866666666667L229.3333333333333 181.3333333333334L350.08 302.0800000000001L365.0133333333333 286.9333333333334L259.4133333333333 181.3333333333334L365.0133333333333 75.7333333333334L350.08 60.5866666666667M264.7466666666667 60.5866666666667L144 181.3333333333334L264.7466666666667 302.0800000000001L279.68 286.9333333333334L174.08 181.3333333333334L279.68 75.7333333333334L264.7466666666667 60.5866666666667z" />
    <glyph glyph-name="chevron-double-right"
      unicode="&#xF13E;"
      horiz-adv-x="512" d=" M140.5866666666667 302.0800000000001L261.3333333333333 181.3333333333334L140.5866666666667 60.5866666666667L125.6533333333333 75.7333333333334L231.2533333333334 181.3333333333334L125.6533333333333 286.9333333333334L140.5866666666667 302.0800000000001M225.92 302.0800000000001L346.6666666666667 181.3333333333334L225.92 60.5866666666667L210.9866666666667 75.7333333333334L316.5866666666667 181.3333333333334L210.9866666666667 286.9333333333334L225.92 302.0800000000001z" />
    <glyph glyph-name="chevron-double-up"
      unicode="&#xF13F;"
      horiz-adv-x="512" d=" M124.5866666666667 76.5866666666667L245.3333333333333 197.3333333333334L366.08 76.5866666666667L350.9333333333333 61.6533333333334L245.3333333333333 167.2533333333333L139.7333333333333 61.6533333333334L124.5866666666667 76.5866666666667M124.5866666666667 161.92L245.3333333333333 282.6666666666667L366.08 161.92L350.9333333333333 146.9866666666667L245.3333333333333 252.5866666666667L139.7333333333333 146.9866666666667L124.5866666666667 161.92z" />
    <glyph glyph-name="chevron-down"
      unicode="&#xF140;"
      horiz-adv-x="512" d=" M124.5866666666667 243.4133333333334L245.3333333333333 122.6666666666667L366.08 243.4133333333334L350.9333333333333 258.3466666666667L245.3333333333333 152.7466666666667L139.7333333333333 258.3466666666667L124.5866666666667 243.4133333333334z" />
    <glyph glyph-name="chevron-left"
      unicode="&#xF141;"
      horiz-adv-x="512" d=" M307.4133333333333 60.5866666666667L186.6666666666667 181.3333333333334L307.4133333333333 302.0800000000001L322.3466666666667 286.9333333333334L216.7466666666667 181.3333333333334L322.3466666666667 75.7333333333334L307.4133333333333 60.5866666666667z" />
    <glyph glyph-name="chevron-right"
      unicode="&#xF142;"
      horiz-adv-x="512" d=" M183.2533333333333 60.5866666666667L304 181.3333333333334L183.2533333333333 302.0800000000001L168.32 286.9333333333334L273.92 181.3333333333334L168.32 75.7333333333334L183.2533333333333 60.5866666666667z" />
    <glyph glyph-name="chevron-up"
      unicode="&#xF143;"
      horiz-adv-x="512" d=" M124.5866666666667 119.2533333333333L245.3333333333333 240L366.08 119.2533333333333L350.9333333333333 104.3200000000001L245.3333333333333 209.92L139.7333333333333 104.3200000000001L124.5866666666667 119.2533333333333z" />
    <glyph glyph-name="circle"
      unicode="&#xF764;"
      horiz-adv-x="512" d=" M245.3333333333333 384C357.3333333333333 384 448 293.3333333333334 448 181.3333333333334S357.3333333333333 -21.3333333333333 245.3333333333333 -21.3333333333333S42.6666666666667 69.3333333333334 42.6666666666667 181.3333333333334S133.3333333333333 384 245.3333333333333 384M245.3333333333333 362.6666666666667C145.28 362.6666666666667 64 281.3866666666667 64 181.3333333333334C64 81.28 145.28 0 245.3333333333333 0C345.3866666666667 0 426.6666666666667 81.28 426.6666666666667 181.3333333333334C426.6666666666667 281.3866666666667 345.3866666666667 362.6666666666667 245.3333333333333 362.6666666666667z" />
    <glyph glyph-name="clipboard"
      unicode="&#xF147;"
      horiz-adv-x="512" d=" M128 341.3333333333334H181.3333333333333C181.3333333333333 376.7466666666667 209.92 405.3333333333333 245.3333333333333 405.3333333333333S309.3333333333333 376.7466666666667 309.3333333333333 341.3333333333334H362.6666666666667C398.08 341.3333333333334 426.6666666666667 312.7466666666667 426.6666666666667 277.3333333333334V42.6666666666667C426.6666666666667 7.2533333333333 398.08 -21.3333333333333 362.6666666666667 -21.3333333333333H128C92.5866666666667 -21.3333333333333 64 7.2533333333333 64 42.6666666666667V277.3333333333334C64 312.7466666666667 92.5866666666667 341.3333333333334 128 341.3333333333334M128 320C104.5333333333333 320 85.3333333333333 300.8 85.3333333333333 277.3333333333334V42.6666666666667C85.3333333333333 19.2 104.5333333333333 0 128 0H362.6666666666667C386.1333333333334 0 405.3333333333333 19.2 405.3333333333333 42.6666666666667V277.3333333333334C405.3333333333333 300.8 386.1333333333334 320 362.6666666666667 320H341.3333333333333V256H149.3333333333333V320H128M170.6666666666667 277.3333333333334H320V320H170.6666666666667V277.3333333333334M245.3333333333333 384C221.8666666666667 384 202.6666666666667 364.8 202.6666666666667 341.3333333333334H288C288 364.8 268.8 384 245.3333333333333 384z" />
    <glyph glyph-name="clipboard-check"
      unicode="&#xF14C;"
      horiz-adv-x="512" d=" M128 341.3333333333334H181.3333333333333C181.3333333333333 376.7466666666667 209.92 405.3333333333333 245.3333333333333 405.3333333333333S309.3333333333333 376.7466666666667 309.3333333333333 341.3333333333334H362.6666666666667C398.08 341.3333333333334 426.6666666666667 312.7466666666667 426.6666666666667 277.3333333333334V42.6666666666667C426.6666666666667 7.2533333333333 398.08 -21.3333333333333 362.6666666666667 -21.3333333333333H128C92.5866666666667 -21.3333333333333 64 7.2533333333333 64 42.6666666666667V277.3333333333334C64 312.7466666666667 92.5866666666667 341.3333333333334 128 341.3333333333334M128 320C104.5333333333333 320 85.3333333333333 300.8 85.3333333333333 277.3333333333334V42.6666666666667C85.3333333333333 19.2 104.5333333333333 0 128 0H362.6666666666667C386.1333333333334 0 405.3333333333333 19.2 405.3333333333333 42.6666666666667V277.3333333333334C405.3333333333333 300.8 386.1333333333334 320 362.6666666666667 320H341.3333333333333V256H149.3333333333333V320H128M170.6666666666667 277.3333333333334H320V320H170.6666666666667V277.3333333333334M245.3333333333333 384C221.8666666666667 384 202.6666666666667 364.8 202.6666666666667 341.3333333333334H288C288 364.8 268.8 384 245.3333333333333 384M365.8666666666666 200.5333333333334L213.3333333333333 48L145.0666666666667 116.2666666666667L160 131.4133333333334L213.3333333333333 78.08L350.7200000000001 215.68L365.8666666666667 200.5333333333333z" />
    <glyph glyph-name="clipboard-plus"
      unicode="&#xF750;"
      horiz-adv-x="512" d=" M128 341.3333333333334H181.3333333333333C181.3333333333333 376.7466666666667 209.92 405.3333333333333 245.3333333333333 405.3333333333333S309.3333333333333 376.7466666666667 309.3333333333333 341.3333333333334H362.6666666666667C398.08 341.3333333333334 426.6666666666667 312.7466666666667 426.6666666666667 277.3333333333334V42.6666666666667C426.6666666666667 7.2533333333333 398.08 -21.3333333333333 362.6666666666667 -21.3333333333333H128C92.5866666666667 -21.3333333333333 64 7.2533333333333 64 42.6666666666667V277.3333333333334C64 312.7466666666667 92.5866666666667 341.3333333333334 128 341.3333333333334M128 320C104.5333333333333 320 85.3333333333333 300.8 85.3333333333333 277.3333333333334V42.6666666666667C85.3333333333333 19.2 104.5333333333333 0 128 0H362.6666666666667C386.1333333333334 0 405.3333333333333 19.2 405.3333333333333 42.6666666666667V277.3333333333334C405.3333333333333 300.8 386.1333333333334 320 362.6666666666667 320H341.3333333333333V256H149.3333333333333V320H128M170.6666666666667 277.3333333333334H320V320H170.6666666666667V277.3333333333334M245.3333333333333 384C221.8666666666667 384 202.6666666666667 364.8 202.6666666666667 341.3333333333334H288C288 364.8 268.8 384 245.3333333333333 384M170.6666666666667 42.6666666666667V85.3333333333334H128V106.6666666666667H170.6666666666667V149.3333333333334H192V106.6666666666667H234.6666666666667V85.3333333333334H192V42.6666666666667H170.6666666666667z" />
    <glyph glyph-name="clipboard-text"
      unicode="&#xF14E;"
      horiz-adv-x="512" d=" M128 341.3333333333334H181.3333333333333C181.3333333333333 376.7466666666667 209.92 405.3333333333333 245.3333333333333 405.3333333333333S309.3333333333333 376.7466666666667 309.3333333333333 341.3333333333334H362.6666666666667C398.08 341.3333333333334 426.6666666666667 312.7466666666667 426.6666666666667 277.3333333333334V42.6666666666667C426.6666666666667 7.2533333333333 398.08 -21.3333333333333 362.6666666666667 -21.3333333333333H128C92.5866666666667 -21.3333333333333 64 7.2533333333333 64 42.6666666666667V277.3333333333334C64 312.7466666666667 92.5866666666667 341.3333333333334 128 341.3333333333334M128 320C104.5333333333333 320 85.3333333333333 300.8 85.3333333333333 277.3333333333334V42.6666666666667C85.3333333333333 19.2 104.5333333333333 0 128 0H362.6666666666667C386.1333333333334 0 405.3333333333333 19.2 405.3333333333333 42.6666666666667V277.3333333333334C405.3333333333333 300.8 386.1333333333334 320 362.6666666666667 320H341.3333333333333V256H149.3333333333333V320H128M170.6666666666667 277.3333333333334H320V320H170.6666666666667V277.3333333333334M245.3333333333333 384C221.8666666666667 384 202.6666666666667 364.8 202.6666666666667 341.3333333333334H288C288 364.8 268.8 384 245.3333333333333 384M128 213.3333333333334H362.6666666666667V192H128V213.3333333333334M128 149.3333333333334H362.6666666666667V128H128V149.3333333333334M128 85.3333333333334H320V64H128V85.3333333333334z" />
    <glyph glyph-name="clock"
      unicode="&#xF150;"
      horiz-adv-x="512" d=" M245.3333333333333 384C357.3333333333333 384 448 293.3333333333334 448 181.3333333333334S357.3333333333333 -21.3333333333333 245.3333333333333 -21.3333333333333S42.6666666666667 69.3333333333334 42.6666666666667 181.3333333333334S133.3333333333333 384 245.3333333333333 384M245.3333333333333 362.6666666666667C145.28 362.6666666666667 64 281.3866666666667 64 181.3333333333334C64 81.28 145.28 0 245.3333333333333 0C345.3866666666667 0 426.6666666666667 81.28 426.6666666666667 181.3333333333334C426.6666666666667 281.3866666666667 345.3866666666667 362.6666666666667 245.3333333333333 362.6666666666667M234.6666666666667 298.6666666666667H256V183.04L356.2666666666667 125.2266666666667L345.6 106.6666666666667L234.6666666666667 170.6666666666668V298.6666666666667z" />
    <glyph glyph-name="closed-caption"
      unicode="&#xF15E;"
      horiz-adv-x="512" d=" M85.3333333333333 341.3333333333334H405.3333333333333C440.7466666666667 341.3333333333334 469.3333333333333 312.7466666666667 469.3333333333333 277.3333333333334V85.3333333333334C469.3333333333333 49.92 440.7466666666667 21.3333333333334 405.3333333333333 21.3333333333334H85.3333333333333C49.92 21.3333333333334 21.3333333333333 49.92 21.3333333333333 85.3333333333334V277.3333333333334C21.3333333333333 312.7466666666667 49.92 341.3333333333334 85.3333333333333 341.3333333333334M85.3333333333333 320C61.8666666666667 320 42.6666666666667 300.8 42.6666666666667 277.3333333333334V85.3333333333334C42.6666666666667 61.8666666666667 61.8666666666667 42.6666666666667 85.3333333333333 42.6666666666667H405.3333333333333C428.8 42.6666666666667 448 61.8666666666667 448 85.3333333333334V277.3333333333334C448 300.8 428.8 320 405.3333333333333 320H85.3333333333333M181.3333333333333 277.3333333333334C202.6666666666667 277.3333333333334 221.8666666666667 270.5066666666667 237.8666666666667 258.9866666666667L225.28 241.7066666666667C213.3333333333333 250.6666666666667 197.76 256 181.3333333333333 256C140.16 256 106.6666666666667 222.5066666666667 106.6666666666667 181.3333333333334S140.16 106.6666666666667 181.3333333333333 106.6666666666667C197.76 106.6666666666667 213.3333333333333 112 225.28 120.96L237.8666666666667 103.68C221.8666666666667 92.16 202.6666666666667 85.3333333333334 181.3333333333333 85.3333333333334C128 85.3333333333334 85.3333333333333 128 85.3333333333333 181.3333333333334S128 277.3333333333334 181.3333333333333 277.3333333333334M348.8 277.3333333333334C369.92 277.3333333333334 389.5466666666667 270.5066666666667 405.3333333333333 258.9866666666667L392.7466666666667 241.7066666666667C380.3733333333334 250.6666666666667 365.2266666666667 256 348.8 256C307.6266666666667 256 274.1333333333334 222.5066666666667 274.1333333333334 181.3333333333334S307.6266666666667 106.6666666666667 348.8 106.6666666666667C365.2266666666667 106.6666666666667 380.3733333333334 112 392.7466666666667 120.96L405.3333333333333 103.68C389.5466666666667 92.16 369.92 85.3333333333334 348.8 85.3333333333334C295.8933333333333 85.3333333333334 252.8 128 252.8 181.3333333333334S295.8933333333333 277.3333333333334 348.8 277.3333333333334z" />
    <glyph glyph-name="cloud"
      unicode="&#xF15F;"
      horiz-adv-x="512" d=" M117.3333333333333 21.3333333333334C52.48 21.3333333333334 0 73.8133333333334 0 138.6666666666667S52.48 256 117.3333333333333 256C138.6666666666667 306.1333333333334 187.7333333333334 341.3333333333334 245.3333333333333 341.3333333333334C318.5066666666667 341.3333333333334 378.4533333333334 284.5866666666667 384 212.6933333333333L394.6666666666667 213.3333333333333C448 213.3333333333333 490.6666666666666 170.6666666666666 490.6666666666666 117.3333333333333S448 21.3333333333334 394.6666666666667 21.3333333333334H117.3333333333333M117.3333333333333 234.6666666666667C64 234.6666666666667 21.3333333333333 192 21.3333333333333 138.6666666666667S64 42.6666666666667 117.3333333333333 42.6666666666667H394.6666666666667C435.84 42.6666666666667 469.3333333333333 76.16 469.3333333333333 117.3333333333334S435.84 192 394.6666666666667 192C382.7200000000001 192 371.2 189.2266666666667 361.1733333333333 184.1066666666667C362.6666666666667 190.0800000000001 362.6666666666667 196.2666666666667 362.6666666666667 202.6666666666667C362.6666666666667 267.52 310.1866666666666 320 245.3333333333333 320C191.1466666666667 320 145.7066666666667 283.3066666666667 132.0533333333334 233.6L117.3333333333333 234.6666666666667z" />
    <glyph glyph-name="cloud-download"
      unicode="&#xF162;"
      horiz-adv-x="512" d=" M117.3333333333333 21.3333333333334C52.48 21.3333333333334 0 73.8133333333334 0 138.6666666666667S52.48 256 117.3333333333333 256C138.6666666666667 306.1333333333334 187.7333333333334 341.3333333333334 245.3333333333333 341.3333333333334C318.5066666666667 341.3333333333334 378.4533333333334 284.5866666666667 384 212.6933333333333L394.6666666666667 213.3333333333333C448 213.3333333333333 490.6666666666666 170.6666666666666 490.6666666666666 117.3333333333333S448 21.3333333333334 394.6666666666667 21.3333333333334H117.3333333333333M117.3333333333333 234.6666666666667C64 234.6666666666667 21.3333333333333 192 21.3333333333333 138.6666666666667S64 42.6666666666667 117.3333333333333 42.6666666666667H394.6666666666667C435.84 42.6666666666667 469.3333333333333 76.16 469.3333333333333 117.3333333333334S435.84 192 394.6666666666667 192C382.7200000000001 192 371.2 189.2266666666667 361.1733333333333 184.1066666666667L362.6666666666667 202.6666666666667C362.6666666666667 267.52 310.1866666666666 320 245.3333333333333 320C191.1466666666667 320 145.7066666666667 283.3066666666667 132.0533333333334 233.6L117.3333333333333 234.6666666666667M256 234.6666666666667V122.6666666666667L304 170.6666666666667L320 156.5866666666667L245.3333333333333 81.92L170.6666666666667 156.5866666666667L186.6666666666667 170.6666666666667L234.6666666666667 122.6666666666667V234.6666666666667H256z" />
    <glyph glyph-name="cloud-upload"
      unicode="&#xF167;"
      horiz-adv-x="512" d=" M117.3333333333333 21.3333333333334C52.48 21.3333333333334 0 73.8133333333334 0 138.6666666666667S52.48 256 117.3333333333333 256C138.6666666666667 306.1333333333334 187.7333333333334 341.3333333333334 245.3333333333333 341.3333333333334C318.5066666666667 341.3333333333334 378.4533333333334 284.5866666666667 384 212.6933333333333L394.6666666666667 213.3333333333333C448 213.3333333333333 490.6666666666666 170.6666666666666 490.6666666666666 117.3333333333333S448 21.3333333333334 394.6666666666667 21.3333333333334H117.3333333333333M117.3333333333333 234.6666666666667C64 234.6666666666667 21.3333333333333 192 21.3333333333333 138.6666666666667S64 42.6666666666667 117.3333333333333 42.6666666666667H394.6666666666667C435.84 42.6666666666667 469.3333333333333 76.16 469.3333333333333 117.3333333333334S435.84 192 394.6666666666667 192C382.7200000000001 192 371.2 189.2266666666667 361.1733333333333 184.1066666666667L362.6666666666667 202.6666666666667C362.6666666666667 267.52 310.1866666666666 320 245.3333333333333 320C191.1466666666667 320 145.7066666666667 283.3066666666667 132.0533333333334 233.6L117.3333333333333 234.6666666666667M256 85.3333333333334V197.3333333333334L304 149.3333333333334L320 163.4133333333334L245.3333333333333 238.08L170.6666666666667 163.4133333333334L186.6666666666667 149.3333333333334L234.6666666666667 197.3333333333334V85.3333333333334H256z" />
    <glyph glyph-name="comment"
      unicode="&#xF17A;"
      horiz-adv-x="512" d=" M106.6666666666667 384H384C419.4133333333333 384 448 355.4133333333334 448 320V128C448 92.5866666666667 419.4133333333333 64 384 64H286.08L207.1466666666667 -15.1466666666666C203.3066666666667 -18.9866666666667 197.9733333333334 -21.3333333333333 192 -21.3333333333333C180.2666666666667 -21.3333333333333 170.6666666666667 -11.7333333333333 170.6666666666667 0V64H106.6666666666667C71.2533333333333 64 42.6666666666667 92.5866666666667 42.6666666666667 128V320C42.6666666666667 355.4133333333334 71.2533333333333 384 106.6666666666667 384M384 362.6666666666667H106.6666666666667C83.2 362.6666666666667 64 343.4666666666667 64 320V128C64 104.5333333333333 83.2 85.3333333333334 106.6666666666667 85.3333333333334H192V0L277.3333333333333 85.3333333333334H384C407.4666666666667 85.3333333333334 426.6666666666667 104.5333333333333 426.6666666666667 128V320C426.6666666666667 343.4666666666667 407.4666666666667 362.6666666666667 384 362.6666666666667z" />
    <glyph glyph-name="comment-alert"
      unicode="&#xF17D;"
      horiz-adv-x="512" d=" M106.6666666666667 384H384C419.4133333333333 384 448 355.4133333333334 448 320V128C448 92.5866666666667 419.4133333333333 64 384 64H286.08L207.1466666666667 -15.1466666666666C203.3066666666667 -18.9866666666667 197.9733333333334 -21.3333333333333 192 -21.3333333333333C180.2666666666667 -21.3333333333333 170.6666666666667 -11.7333333333333 170.6666666666667 0V64H106.6666666666667C71.2533333333333 64 42.6666666666667 92.5866666666667 42.6666666666667 128V320C42.6666666666667 355.4133333333334 71.2533333333333 384 106.6666666666667 384M384 362.6666666666667H106.6666666666667C83.2 362.6666666666667 64 343.4666666666667 64 320V128C64 104.5333333333333 83.2 85.3333333333334 106.6666666666667 85.3333333333334H192V0L277.3333333333333 85.3333333333334H384C407.4666666666667 85.3333333333334 426.6666666666667 104.5333333333333 426.6666666666667 128V320C426.6666666666667 343.4666666666667 407.4666666666667 362.6666666666667 384 362.6666666666667M234.6666666666667 320H256V213.3333333333334H234.6666666666667V320M234.6666666666667 170.6666666666667H256V128H234.6666666666667V170.6666666666667z" />
    <glyph glyph-name="comment-text"
      unicode="&#xF188;"
      horiz-adv-x="512" d=" M106.6666666666667 384H384C419.4133333333333 384 448 355.4133333333334 448 320V128C448 92.5866666666667 419.4133333333333 64 384 64H286.08L207.1466666666667 -15.1466666666666C203.3066666666667 -18.9866666666667 197.9733333333334 -21.3333333333333 192 -21.3333333333333C180.2666666666667 -21.3333333333333 170.6666666666667 -11.7333333333333 170.6666666666667 0V64H106.6666666666667C71.2533333333333 64 42.6666666666667 92.5866666666667 42.6666666666667 128V320C42.6666666666667 355.4133333333334 71.2533333333333 384 106.6666666666667 384M384 362.6666666666667H106.6666666666667C83.2 362.6666666666667 64 343.4666666666667 64 320V128C64 104.5333333333333 83.2 85.3333333333334 106.6666666666667 85.3333333333334H192V0L277.3333333333333 85.3333333333334H384C407.4666666666667 85.3333333333334 426.6666666666667 104.5333333333333 426.6666666666667 128V320C426.6666666666667 343.4666666666667 407.4666666666667 362.6666666666667 384 362.6666666666667M106.6666666666667 298.6666666666667H384V277.3333333333334H106.6666666666667V298.6666666666667M106.6666666666667 234.6666666666667H362.6666666666667V213.3333333333334H106.6666666666667V234.6666666666667M106.6666666666667 170.6666666666667H277.3333333333333V149.3333333333334H106.6666666666667V170.6666666666667z" />
    <glyph glyph-name="console"
      unicode="&#xF18D;"
      horiz-adv-x="512" d=" M106.6666666666667 362.6666666666667H384C419.4133333333333 362.6666666666667 448 334.0800000000001 448 298.6666666666667V64C448 28.5866666666667 419.4133333333333 0 384 0H106.6666666666667C71.2533333333333 0 42.6666666666667 28.5866666666667 42.6666666666667 64V298.6666666666667C42.6666666666667 334.0800000000001 71.2533333333333 362.6666666666667 106.6666666666667 362.6666666666667M106.6666666666667 341.3333333333334C83.2 341.3333333333334 64 322.1333333333334 64 298.6666666666667H426.6666666666667C426.6666666666667 322.1333333333334 407.4666666666667 341.3333333333334 384 341.3333333333334H106.6666666666667M64 64C64 40.5333333333333 83.2 21.3333333333334 106.6666666666667 21.3333333333334H384C407.4666666666667 21.3333333333334 426.6666666666667 40.5333333333333 426.6666666666667 64V277.3333333333334H64V64M362.6666666666667 64H256V85.3333333333334H362.6666666666667V64M128 224L143.1466666666667 239.1466666666667L232.7466666666667 149.3333333333334L143.1466666666667 59.52L128 74.6666666666667L202.6666666666667 149.3333333333334L128 224z" />
    <glyph glyph-name="content-cut"
      unicode="&#xF190;"
      horiz-adv-x="512" d=" M192 309.3333333333334C192 292.48 186.4533333333333 277.3333333333334 177.0666666666667 264.5333333333334L426.6666666666667 15.1466666666667V0H411.52L245.3333333333333 166.1866666666667L177.0666666666667 98.1333333333333C186.4533333333333 85.3333333333333 192 70.1866666666667 192 53.3333333333333C192 12.16 158.5066666666667 -21.3333333333333 117.3333333333333 -21.3333333333333S42.6666666666667 12.16 42.6666666666667 53.3333333333334S76.16 128 117.3333333333333 128C134.1866666666667 128 149.3333333333333 122.4533333333334 162.1333333333333 113.0666666666667L230.1866666666667 181.3333333333334L162.1333333333333 249.6C149.3333333333333 240.2133333333334 134.1866666666667 234.6666666666667 117.3333333333333 234.6666666666667C76.16 234.6666666666667 42.6666666666667 268.1600000000001 42.6666666666667 309.3333333333334S76.16 384 117.3333333333333 384S192 350.5066666666667 192 309.3333333333334M170.6666666666667 309.3333333333334C170.6666666666667 338.7733333333333 146.7733333333333 362.6666666666667 117.3333333333333 362.6666666666667S64 338.7733333333333 64 309.3333333333334S87.8933333333333 256 117.3333333333333 256S170.6666666666667 279.8933333333333 170.6666666666667 309.3333333333334M411.52 362.6666666666667H426.6666666666667V347.52L274.1333333333334 195.2L259.2 210.1333333333333L411.52 362.6666666666667M117.3333333333333 106.6666666666667C87.8933333333333 106.6666666666667 64 82.7733333333333 64 53.3333333333334S87.8933333333333 0 117.3333333333333 0S170.6666666666667 23.8933333333334 170.6666666666667 53.3333333333334S146.7733333333333 106.6666666666667 117.3333333333333 106.6666666666667z" />
    <glyph glyph-name="content-duplicate"
      unicode="&#xF191;"
      horiz-adv-x="512" d=" M192 320H362.6666666666667C398.08 320 426.6666666666667 291.4133333333334 426.6666666666667 256V21.3333333333334C426.6666666666667 -14.08 398.08 -42.6666666666666 362.6666666666667 -42.6666666666666H192C156.5866666666667 -42.6666666666666 128 -14.08 128 21.3333333333334V42.6666666666667H149.3333333333333V21.3333333333334C149.3333333333333 -2.1333333333333 168.5333333333333 -21.3333333333333 192 -21.3333333333333H362.6666666666667C386.1333333333334 -21.3333333333333 405.3333333333333 -2.1333333333333 405.3333333333333 21.3333333333334V256C405.3333333333333 279.4666666666667 386.1333333333334 298.6666666666667 362.6666666666667 298.6666666666667H192C168.5333333333333 298.6666666666667 149.3333333333333 279.4666666666667 149.3333333333333 256V149.3333333333334H128V256C128 291.4133333333334 156.5866666666667 320 192 320M106.6666666666667 405.3333333333333H320V384H106.6666666666667C83.2 384 64 364.8 64 341.3333333333334V149.3333333333334C64 125.8666666666667 83.2 106.6666666666667 106.6666666666667 106.6666666666667H261.3333333333333L213.3333333333333 154.6666666666667L227.4133333333334 170.6666666666667L302.08 96L227.4133333333334 21.3333333333334L213.3333333333333 37.3333333333334L261.3333333333333 85.3333333333334H106.6666666666667C71.2533333333333 85.3333333333334 42.6666666666667 113.92 42.6666666666667 149.3333333333334V341.3333333333334C42.6666666666667 376.7466666666667 71.2533333333333 405.3333333333333 106.6666666666667 405.3333333333333z" />
    <glyph glyph-name="content-paste"
      unicode="&#xF192;"
      horiz-adv-x="512" d=" M245.3333333333333 426.6666666666667C271.1466666666667 426.6666666666667 292.6933333333334 408.32 297.6 384H362.6666666666667C398.08 384 426.6666666666667 355.4133333333334 426.6666666666667 320V42.6666666666667C426.6666666666667 7.2533333333333 398.08 -21.3333333333333 362.6666666666667 -21.3333333333333H128C92.5866666666667 -21.3333333333333 64 7.2533333333333 64 42.6666666666667V320C64 355.4133333333334 92.5866666666667 384 128 384H193.0666666666667C197.9733333333334 408.32 219.52 426.6666666666667 245.3333333333333 426.6666666666667M275.4133333333333 384C271.1466666666667 396.3733333333334 259.2 405.3333333333333 245.3333333333333 405.3333333333333C231.4666666666667 405.3333333333333 219.52 396.3733333333334 215.2533333333333 384H275.4133333333333M128 362.6666666666667C104.5333333333333 362.6666666666667 85.3333333333333 343.4666666666667 85.3333333333333 320V42.6666666666667C85.3333333333333 19.2 104.5333333333333 0 128 0H362.6666666666667C386.1333333333334 0 405.3333333333333 19.2 405.3333333333333 42.6666666666667V320C405.3333333333333 343.4666666666667 386.1333333333334 362.6666666666667 362.6666666666667 362.6666666666667H341.3333333333333V298.6666666666667H149.3333333333333V362.6666666666667H128M170.6666666666667 362.6666666666667V320H320V362.6666666666667H170.6666666666667z" />
    <glyph glyph-name="content-save"
      unicode="&#xF193;"
      horiz-adv-x="512" d=" M128 362.6666666666667H353.92L426.6666666666667 289.92V64C426.6666666666667 28.5866666666667 398.08 0 362.6666666666667 0H128C92.5866666666667 0 64 28.5866666666667 64 64V298.6666666666667C64 334.0800000000001 92.5866666666667 362.6666666666667 128 362.6666666666667M128 341.3333333333334C104.5333333333333 341.3333333333334 85.3333333333333 322.1333333333334 85.3333333333333 298.6666666666667V64C85.3333333333333 40.5333333333333 104.5333333333333 21.3333333333334 128 21.3333333333334H362.6666666666667C386.1333333333334 21.3333333333334 405.3333333333333 40.5333333333333 405.3333333333333 64V279.2533333333334L343.2533333333334 341.3333333333334H320V234.6666666666667H128V341.3333333333334M149.3333333333333 341.3333333333334V256H298.6666666666667V341.3333333333334H149.3333333333333M256 192C291.4133333333333 192 320 163.4133333333334 320 128S291.4133333333333 64 256 64S192 92.5866666666667 192 128S220.5866666666667 192 256 192M256 170.6666666666667C232.5333333333334 170.6666666666667 213.3333333333333 151.4666666666667 213.3333333333333 128S232.5333333333334 85.3333333333334 256 85.3333333333334S298.6666666666667 104.5333333333333 298.6666666666667 128S279.4666666666667 170.6666666666667 256 170.6666666666667z" />
    <glyph glyph-name="content-save-all"
      unicode="&#xF194;"
      horiz-adv-x="512" d=" M128 384H353.92L426.6666666666667 311.2533333333334V85.3333333333334C426.6666666666667 49.92 398.08 21.3333333333334 362.6666666666667 21.3333333333334H128C92.5866666666667 21.3333333333334 64 49.92 64 85.3333333333334V320C64 355.4133333333334 92.5866666666667 384 128 384M128 362.6666666666667C104.5333333333333 362.6666666666667 85.3333333333333 343.4666666666667 85.3333333333333 320V85.3333333333334C85.3333333333333 61.8666666666667 104.5333333333333 42.6666666666667 128 42.6666666666667H362.6666666666667C386.1333333333334 42.6666666666667 405.3333333333333 61.8666666666667 405.3333333333333 85.3333333333334V300.5866666666667L343.2533333333334 362.6666666666667H320V256H128V362.6666666666667M149.3333333333333 362.6666666666667V277.3333333333334H298.6666666666667V362.6666666666667H149.3333333333333M256 213.3333333333334C291.4133333333333 213.3333333333334 320 184.7466666666667 320 149.3333333333334S291.4133333333333 85.3333333333334 256 85.3333333333334S192 113.92 192 149.3333333333334S220.5866666666667 213.3333333333334 256 213.3333333333334M256 192C232.5333333333334 192 213.3333333333333 172.8 213.3333333333333 149.3333333333334S232.5333333333334 106.6666666666667 256 106.6666666666667S298.6666666666667 125.8666666666667 298.6666666666667 149.3333333333334S279.4666666666667 192 256 192M128 -21.3333333333333C69.12 -21.3333333333333 21.3333333333333 26.4533333333334 21.3333333333333 85.3333333333334V298.6666666666667H42.6666666666667V85.3333333333334C42.6666666666667 38.1866666666667 80.8533333333333 0 128 0H341.3333333333333V-21.3333333333333H128z" />
    <glyph glyph-name="credit-card"
      unicode="&#xF19B;"
      horiz-adv-x="512" d=" M106.6666666666667 341.3333333333334H384C419.4133333333333 341.3333333333334 448 312.7466666666667 448 277.3333333333334V85.3333333333334C448 49.92 419.4133333333333 21.3333333333334 384 21.3333333333334H106.6666666666667C71.2533333333333 21.3333333333334 42.6666666666667 49.92 42.6666666666667 85.3333333333334V277.3333333333334C42.6666666666667 312.7466666666667 71.2533333333333 341.3333333333334 106.6666666666667 341.3333333333334M106.6666666666667 320C83.2 320 64 300.8 64 277.3333333333334V256H426.6666666666667V277.3333333333334C426.6666666666667 300.8 407.4666666666667 320 384 320H106.6666666666667M64 85.3333333333334C64 61.8666666666667 83.2 42.6666666666667 106.6666666666667 42.6666666666667H384C407.4666666666667 42.6666666666667 426.6666666666667 61.8666666666667 426.6666666666667 85.3333333333334V192H64V85.3333333333334M106.6666666666667 106.6666666666667H192V85.3333333333334H106.6666666666667V106.6666666666667M234.6666666666667 106.6666666666667H298.6666666666667V85.3333333333334H234.6666666666667V106.6666666666667M64 234.6666666666667V213.3333333333334H426.6666666666667V234.6666666666667H64z" />
    <glyph glyph-name="credit-card-scan"
      unicode="&#xF19D;"
      horiz-adv-x="512" d=" M128 320H362.6666666666667C398.08 320 426.6666666666667 291.4133333333334 426.6666666666667 256V106.6666666666667C426.6666666666667 71.2533333333333 398.08 42.6666666666667 362.6666666666667 42.6666666666667H128C92.5866666666667 42.6666666666667 64 71.2533333333333 64 106.6666666666667V256C64 291.4133333333334 92.5866666666667 320 128 320M128 298.6666666666667C104.5333333333333 298.6666666666667 85.3333333333333 279.4666666666667 85.3333333333333 256H405.3333333333333C405.3333333333333 279.4666666666667 386.1333333333334 298.6666666666667 362.6666666666667 298.6666666666667H128M85.3333333333333 106.6666666666667C85.3333333333333 83.2 104.5333333333333 64 128 64H362.6666666666667C386.1333333333334 64 405.3333333333333 83.2 405.3333333333333 106.6666666666667V192H85.3333333333333V106.6666666666667M128 128H192V106.6666666666667H128V128M234.6666666666667 128H277.3333333333333V106.6666666666667H234.6666666666667V128M85.3333333333333 234.6666666666667V213.3333333333334H405.3333333333333V234.6666666666667H85.3333333333333M64 384H106.6666666666667V362.6666666666667H64C40.5333333333333 362.6666666666667 21.3333333333333 343.4666666666667 21.3333333333333 320V277.3333333333334H0V320C0 355.4133333333334 28.5866666666667 384 64 384M21.3333333333333 42.6666666666667C21.3333333333333 19.2 40.5333333333333 0 64 0H106.6666666666667V-21.3333333333333H64C28.5866666666667 -21.3333333333333 0 7.2533333333333 0 42.6666666666667V85.3333333333334H21.3333333333333V42.6666666666667M426.6666666666667 384C462.08 384 490.6666666666666 355.4133333333334 490.6666666666666 320V277.3333333333334H469.3333333333333V320C469.3333333333333 343.4666666666667 450.1333333333334 362.6666666666667 426.6666666666667 362.6666666666667H384V384H426.6666666666667M490.6666666666666 42.6666666666667C490.6666666666666 7.2533333333333 462.08 -21.3333333333333 426.6666666666667 -21.3333333333333H384V0H426.6666666666667C450.1333333333334 0 469.3333333333333 19.2 469.3333333333333 42.6666666666667V85.3333333333334H490.6666666666666V42.6666666666667z" />
    <glyph glyph-name="crop"
      unicode="&#xF19E;"
      horiz-adv-x="512" d=" M170.6666666666667 320H320C355.4133333333333 320 384 291.4133333333334 384 256V106.6666666666667H362.6666666666667V256C362.6666666666667 279.4666666666667 343.4666666666667 298.6666666666667 320 298.6666666666667H170.6666666666667V320M170.6666666666667 42.6666666666667C135.2533333333333 42.6666666666667 106.6666666666667 71.2533333333333 106.6666666666667 106.6666666666667V298.6666666666667H21.3333333333333V320H106.6666666666667V405.3333333333333H128V106.6666666666667C128 83.2 147.2 64 170.6666666666667 64H448V42.6666666666667H384V-42.6666666666666H362.6666666666667V42.6666666666667H170.6666666666667z" />
    <glyph glyph-name="crop-free"
      unicode="&#xF19F;"
      horiz-adv-x="512" d=" M128 362.6666666666667H170.6666666666667V341.3333333333334H128C104.5333333333333 341.3333333333334 85.3333333333333 322.1333333333334 85.3333333333333 298.6666666666667V256H64V298.6666666666667C64 334.0800000000001 92.5866666666667 362.6666666666667 128 362.6666666666667M85.3333333333333 64C85.3333333333333 40.5333333333333 104.5333333333333 21.3333333333334 128 21.3333333333334H170.6666666666667V0H128C92.5866666666667 0 64 28.5866666666667 64 64V106.6666666666667H85.3333333333333V64M362.6666666666667 362.6666666666667C398.08 362.6666666666667 426.6666666666667 334.0800000000001 426.6666666666667 298.6666666666667V256H405.3333333333333V298.6666666666667C405.3333333333333 322.1333333333334 386.1333333333334 341.3333333333334 362.6666666666667 341.3333333333334H320V362.6666666666667H362.6666666666667M426.6666666666667 64C426.6666666666667 28.5866666666667 398.08 0 362.6666666666667 0H320V21.3333333333334H362.6666666666667C386.1333333333334 21.3333333333334 405.3333333333333 40.5333333333333 405.3333333333333 64V106.6666666666667H426.6666666666667V64z" />
    <glyph glyph-name="currency-eur"
      unicode="&#xF1AD;"
      horiz-adv-x="512" d=" M42.6666666666667 213.3333333333334L53.3333333333333 234.6666666666667H114.56C137.3866666666667 308.6933333333334 206.5066666666667 362.6666666666667 288 362.6666666666667C333.44 362.6666666666667 375.04 346.0266666666667 406.8266666666667 318.2933333333334L398.2933333333334 297.1733333333334C369.7066666666666 324.48 330.6666666666667 341.3333333333334 288 341.3333333333334C218.24 341.3333333333334 159.1466666666667 296.7466666666667 137.1733333333333 234.6666666666667H373.3333333333333L364.8 213.3333333333334H131.2C129.0666666666667 202.6666666666667 128 192 128 181.3333333333334S129.0666666666667 160 131.2 149.3333333333334H339.2L330.6666666666667 128H137.1733333333333C159.1466666666667 65.92 218.24 21.3333333333334 288 21.3333333333334C334.2933333333333 21.3333333333334 376.1066666666667 40.96 405.3333333333333 72.5333333333333V42.6666666666667C373.3333333333333 16.2133333333334 332.8 0 288 0C206.5066666666667 0 137.3866666666667 53.9733333333334 114.56 128H42.6666666666667L53.3333333333333 149.3333333333334H109.44C107.7333333333333 160 106.6666666666667 170.6666666666667 106.6666666666667 181.3333333333334S107.7333333333333 202.6666666666667 109.44 213.3333333333334H42.6666666666667z" />
    <glyph glyph-name="currency-gbp"
      unicode="&#xF1AE;"
      horiz-adv-x="512" d=" M149.3333333333333 170.6666666666667V192H209.4933333333334C208 202.0266666666667 206.08 211.2 204.16 219.7333333333334C200.1066666666667 238.5066666666667 196.48 256 197.3333333333333 277.3333333333334C199.04 316.1600000000001 211.6266666666667 342.8266666666667 235.3066666666667 356.9066666666667C271.1466666666667 378.6666666666667 321.0666666666666 362.6666666666667 341.3333333333333 354.9866666666667L338.1333333333334 333.4400000000001C324.48 339.2000000000001 276.48 356.9066666666667 246.1866666666667 338.5600000000001C229.12 328.5333333333334 219.9466666666666 307.6266666666667 218.6666666666667 277.3333333333334C217.8133333333333 258.1333333333334 221.2266666666666 242.3466666666667 225.0666666666667 224C227.2 214.4 229.3333333333333 203.9466666666667 231.2533333333334 192H320V170.6666666666667H233.6C234.6666666666667 162.56 234.6666666666667 153.6 234.6666666666667 144C234.6666666666667 76.16 203.3066666666667 42.6666666666667 178.1333333333333 21.3333333333334H362.6666666666667V0H138.6666666666667V21.3333333333334L155.9466666666667 30.5066666666667C180.0533333333334 50.7733333333333 213.3333333333333 78.2933333333334 213.3333333333333 144C213.3333333333333 153.6 213.3333333333333 162.56 212.2666666666667 170.6666666666667H149.3333333333333z" />
    <glyph glyph-name="currency-rub"
      unicode="&#xF1B1;"
      horiz-adv-x="512" d=" M149.3333333333333 0V106.6666666666667H128V128H149.3333333333333V192H128V213.3333333333334H149.3333333333333V362.6666666666667H298.6666666666667C345.8133333333334 362.6666666666667 384 324.48 384 277.3333333333334S345.8133333333334 192 298.6666666666667 192H170.6666666666667V128H298.6666666666667V106.6666666666667H170.6666666666667V0H149.3333333333333M170.6666666666667 213.3333333333334H298.6666666666667C334.08 213.3333333333334 362.6666666666667 241.92 362.6666666666667 277.3333333333334S334.08 341.3333333333334 298.6666666666667 341.3333333333334H170.6666666666667V213.3333333333334z" />
    <glyph glyph-name="currency-usd"
      unicode="&#xF1B3;"
      horiz-adv-x="512" d=" M234.6666666666667 362.6666666666667H256V320C326.1866666666666 316.8 341.3333333333333 283.7333333333334 341.3333333333333 256H320C320 284.3733333333334 294.8266666666667 298.6666666666667 245.3333333333333 298.6666666666667C227.84 298.6666666666667 170.6666666666667 295.2533333333334 170.6666666666667 250.6666666666667C170.6666666666667 232.1066666666667 170.6666666666667 210.9866666666667 247.8933333333334 192L282.24 181.3333333333334C336.2133333333333 161.4933333333334 341.3333333333333 137.1733333333334 341.3333333333333 112C341.3333333333333 71.8933333333334 309.3333333333333 46.08 256 42.6666666666667V0H234.6666666666667V42.6666666666667C164.48 45.8666666666667 149.3333333333333 78.9333333333333 149.3333333333333 106.6666666666667H170.6666666666667C170.6666666666667 78.2933333333334 195.84 64 245.3333333333333 64C262.8266666666667 64 320 67.4133333333334 320 112C320 130.56 320 151.68 242.7733333333333 170.6666666666667L208.4266666666667 181.3333333333334C154.4533333333333 201.1733333333334 149.3333333333333 225.4933333333334 149.3333333333333 250.6666666666667C149.3333333333333 290.7733333333333 181.3333333333333 316.5866666666667 234.6666666666667 320V362.6666666666667z" />
    <glyph glyph-name="delete"
      unicode="&#xF1C0;"
      horiz-adv-x="512" d=" M384 42.6666666666667C384 7.2533333333333 355.4133333333333 -21.3333333333333 320 -21.3333333333333H170.6666666666667C135.2533333333333 -21.3333333333333 106.6666666666667 7.2533333333333 106.6666666666667 42.6666666666667V298.6666666666667H85.3333333333333V362.6666666666667H181.3333333333333L202.6666666666667 384H288L309.3333333333333 362.6666666666667H405.3333333333333V298.6666666666667H384V42.6666666666667M128 298.6666666666667V42.6666666666667C128 19.2 147.2 0 170.6666666666667 0H320C343.4666666666667 0 362.6666666666667 19.2 362.6666666666667 42.6666666666667V298.6666666666667H128M384 320V341.3333333333334H298.6666666666667L277.3333333333333 362.6666666666667H213.3333333333333L192 341.3333333333334H106.6666666666667V320H384M170.6666666666667 256H192V42.6666666666667H170.6666666666667V256M298.6666666666667 256H320V42.6666666666667H298.6666666666667V256z" />
    <glyph glyph-name="diamond-stone"
      unicode="&#xF1C8;"
      horiz-adv-x="512" d=" M128 384H362.6666666666667L445.8666666666666 265.1733333333334L245.3333333333333 -21.3333333333333L44.8 265.1733333333334L128 384M216.7466666666667 362.6666666666667L180.48 277.3333333333334H310.1866666666667L273.92 362.6666666666667H216.7466666666667M177.7066666666667 256L245.3333333333333 47.7866666666668L312.96 256H177.7066666666667M79.36 277.3333333333334H157.44L193.7066666666667 362.6666666666667H138.6666666666667L79.36 277.3333333333334M77.2266666666667 256L222.72 48L155.3066666666667 256H77.2266666666667M411.3066666666667 277.3333333333334L352 362.6666666666667H296.96L333.2266666666667 277.3333333333334H411.3066666666667M413.4400000000001 256H335.36L267.9466666666667 48L413.44 256z" />
    <glyph glyph-name="dots-horizontal"
      unicode="&#xF1D8;"
      horiz-adv-x="512" d=" M341.3333333333333 192C341.3333333333333 215.4666666666667 360.5333333333333 234.6666666666667 384 234.6666666666667S426.6666666666667 215.4666666666667 426.6666666666667 192S407.4666666666667 149.3333333333334 384 149.3333333333334S341.3333333333333 168.5333333333334 341.3333333333333 192M213.3333333333333 192C213.3333333333333 215.4666666666667 232.5333333333334 234.6666666666667 256 234.6666666666667S298.6666666666667 215.4666666666667 298.6666666666667 192S279.4666666666667 149.3333333333334 256 149.3333333333334S213.3333333333333 168.5333333333334 213.3333333333333 192M85.3333333333333 192C85.3333333333333 215.4666666666667 104.5333333333333 234.6666666666667 128 234.6666666666667S170.6666666666667 215.4666666666667 170.6666666666667 192S151.4666666666667 149.3333333333334 128 149.3333333333334S85.3333333333333 168.5333333333334 85.3333333333333 192M128 213.3333333333334C116.2666666666667 213.3333333333334 106.6666666666667 203.7333333333334 106.6666666666667 192S116.2666666666667 170.6666666666667 128 170.6666666666667S149.3333333333333 180.2666666666667 149.3333333333333 192S139.7333333333333 213.3333333333334 128 213.3333333333334M256 213.3333333333334C244.2666666666667 213.3333333333334 234.6666666666667 203.7333333333334 234.6666666666667 192S244.2666666666667 170.6666666666667 256 170.6666666666667S277.3333333333333 180.2666666666667 277.3333333333333 192S267.7333333333334 213.3333333333334 256 213.3333333333334M384 213.3333333333334C372.2666666666667 213.3333333333334 362.6666666666667 203.7333333333334 362.6666666666667 192S372.2666666666667 170.6666666666667 384 170.6666666666667S405.3333333333333 180.2666666666667 405.3333333333333 192S395.7333333333334 213.3333333333334 384 213.3333333333334z" />
    <glyph glyph-name="dots-vertical"
      unicode="&#xF1D9;"
      horiz-adv-x="512" d=" M256 106.6666666666667C279.4666666666667 106.6666666666667 298.6666666666667 87.4666666666667 298.6666666666667 64S279.4666666666667 21.3333333333334 256 21.3333333333334S213.3333333333333 40.5333333333333 213.3333333333333 64S232.5333333333334 106.6666666666667 256 106.6666666666667M256 234.6666666666667C279.4666666666667 234.6666666666667 298.6666666666667 215.4666666666667 298.6666666666667 192S279.4666666666667 149.3333333333334 256 149.3333333333334S213.3333333333333 168.5333333333334 213.3333333333333 192S232.5333333333334 234.6666666666667 256 234.6666666666667M256 362.6666666666667C279.4666666666667 362.6666666666667 298.6666666666667 343.4666666666667 298.6666666666667 320S279.4666666666667 277.3333333333334 256 277.3333333333334S213.3333333333333 296.5333333333334 213.3333333333333 320S232.5333333333334 362.6666666666667 256 362.6666666666667M256 341.3333333333334C244.2666666666667 341.3333333333334 234.6666666666667 331.7333333333334 234.6666666666667 320S244.2666666666667 298.6666666666667 256 298.6666666666667S277.3333333333333 308.2666666666667 277.3333333333333 320S267.7333333333334 341.3333333333334 256 341.3333333333334M256 213.3333333333334C244.2666666666667 213.3333333333334 234.6666666666667 203.7333333333334 234.6666666666667 192S244.2666666666667 170.6666666666667 256 170.6666666666667S277.3333333333333 180.2666666666667 277.3333333333333 192S267.7333333333334 213.3333333333334 256 213.3333333333334M256 85.3333333333334C244.2666666666667 85.3333333333334 234.6666666666667 75.7333333333334 234.6666666666667 64S244.2666666666667 42.6666666666667 256 42.6666666666667S277.3333333333333 52.2666666666667 277.3333333333333 64S267.7333333333334 85.3333333333334 256 85.3333333333334z" />
    <glyph glyph-name="download"
      unicode="&#xF1DA;"
      horiz-adv-x="512" d=" M256 362.6666666666667V101.3333333333334L368 213.3333333333334L384 199.2533333333333L245.3333333333333 60.5866666666667L106.6666666666667 199.2533333333333L122.6666666666667 213.3333333333334L234.6666666666667 101.3333333333334V362.6666666666667H256M64 42.6666666666667H85.3333333333333V0H405.3333333333333V42.6666666666667H426.6666666666667V-21.3333333333333H64V42.6666666666667z" />
    <glyph glyph-name="eject"
      unicode="&#xF1EA;"
      horiz-adv-x="512" d=" M113.7066666666667 128L245.3333333333333 325.3333333333334L376.9600000000001 128H113.7066666666667M106.6666666666667 64H384V42.6666666666667H106.6666666666667V64M149.3333333333333 148.6933333333334H341.3333333333333L245.3333333333333 293.3333333333334L149.3333333333333 148.6933333333334z" />
    <glyph glyph-name="email"
      unicode="&#xF1EE;"
      horiz-adv-x="512" d=" M106.6666666666667 341.3333333333334H384C419.4133333333333 341.3333333333334 448 312.7466666666667 448 277.3333333333334V85.3333333333334C448 49.92 419.4133333333333 21.3333333333334 384 21.3333333333334H106.6666666666667C71.2533333333333 21.3333333333334 42.6666666666667 49.92 42.6666666666667 85.3333333333334V277.3333333333334C42.6666666666667 312.7466666666667 71.2533333333333 341.3333333333334 106.6666666666667 341.3333333333334M106.6666666666667 320C96 320 86.6133333333334 316.3733333333334 79.36 309.9733333333334L245.3333333333333 202.6666666666667L411.3066666666667 309.9733333333334C404.0533333333334 316.3733333333334 394.6666666666667 320 384 320H106.6666666666667M245.3333333333333 176.8533333333334L66.7733333333333 292.6933333333334C65.0666666666667 288 64 282.6666666666667 64 277.3333333333334V85.3333333333334C64 61.8666666666667 83.2 42.6666666666667 106.6666666666667 42.6666666666667H384C407.4666666666667 42.6666666666667 426.6666666666667 61.8666666666667 426.6666666666667 85.3333333333334V277.3333333333334C426.6666666666667 282.6666666666667 425.6 288 423.8933333333333 292.6933333333334L245.3333333333334 176.8533333333334z" />
    <glyph glyph-name="email-open"
      unicode="&#xF1EF;"
      horiz-adv-x="512" d=" M448 256V64C448 28.5866666666667 419.4133333333333 0 384 0H106.6666666666667C71.2533333333333 0 42.6666666666667 28.5866666666667 42.6666666666667 64V256C42.6666666666667 279.68 55.4666666666667 300.3733333333334 74.6666666666667 311.4666666666667L245.3333333333333 410.0266666666667L416 311.4666666666667C435.2 300.3733333333334 448 279.68 448 256M79.36 288.64L245.3333333333333 181.3333333333334L411.3066666666667 288.64L245.3333333333333 385.4933333333334L79.36 288.64M245.3333333333333 155.52L66.7733333333333 271.36C65.0666666666667 266.6666666666667 64 261.3333333333334 64 256V64C64 40.5333333333333 83.2 21.3333333333334 106.6666666666667 21.3333333333334H384C407.4666666666667 21.3333333333334 426.6666666666667 40.5333333333333 426.6666666666667 64V256C426.6666666666667 261.3333333333334 425.6 266.6666666666667 423.8933333333333 271.36L245.3333333333334 155.5200000000001z" />
    <glyph glyph-name="eye"
      unicode="&#xF208;"
      horiz-adv-x="512" d=" M245.3333333333333 64C330.6666666666667 64 404.48 111.36 442.4533333333334 181.3333333333334C404.48 251.3066666666667 330.6666666666667 298.6666666666667 245.3333333333333 298.6666666666667S86.1866666666667 251.3066666666667 48.2133333333333 181.3333333333334C86.1866666666667 111.36 160 64 245.3333333333333 64M245.3333333333333 320C342.6133333333333 320 426.6666666666667 263.4666666666667 466.3466666666666 181.3333333333334C426.6666666666667 99.2 342.6133333333333 42.6666666666667 245.3333333333333 42.6666666666667S64 99.2 24.32 181.3333333333334C64 263.4666666666667 148.0533333333334 320 245.3333333333333 320M245.3333333333333 277.3333333333334C298.6666666666667 277.3333333333334 341.3333333333333 234.6666666666667 341.3333333333333 181.3333333333334S298.6666666666667 85.3333333333334 245.3333333333333 85.3333333333334S149.3333333333333 128 149.3333333333333 181.3333333333334S192 277.3333333333334 245.3333333333333 277.3333333333334M245.3333333333333 256C204.16 256 170.6666666666667 222.5066666666667 170.6666666666667 181.3333333333334S204.16 106.6666666666667 245.3333333333333 106.6666666666667S320 140.16 320 181.3333333333334S286.5066666666667 256 245.3333333333333 256z" />
    </font>
</defs>
</svg>
